Зарубежные фильмы Криминал

Лжец, Великий и Ужасный / The Wizard of Lies (2017) BDRip-AVC от OlLanDGroup | P

Лжец, Великий и Ужасный / The Wizard of Lies
«Only those you trust can truly betray you»


Год выпуска: 2017
Страна: США
Производство: HBO Films
Жанр: Драма, криминал, биография

Режиссёр: Бэрри Левинсон
В ролях: Мишель Пфайффер, Роберт Де Ниро, Хэнк Азария, Кристен Коннолли, Алессандро Нивола, Келли АуКойн, Нэйтан Дарроу, Лили Рэйб, Майкл А. Гурджиан, Кэтрин Нардуччи

Перевод: Профессиональный (многоголосый, закадровый) [Novamedia] (для канала HBO)
Субтитры: Английские
Реклама: Отсутствует

Описание: История Берни Мэдоффа — бизнесмена, который построил крупнейшую в мире финансовую пирамиду и замаскировал её под инвестиционный фонд. Мэдофф был приговорен к 150 годам тюремного заключения, а его незаконная деятельность обернулась катастрофой для всей семьи. О жизни этого человека рассказывается в киноленте «Лжец, Великий и Ужасный». Рядом с ним всегда была его красавица жена Рут. Надо сказать, что сыновья этого человека, Марк и Эндрю, до сих пор пользуются деньгами отца из инвестиционного фонда.

Качество: BDRip-AVC
Продолжительность: 02:12:42

Формат: MKV
Видео кодек: MPEG-4 AVC
Аудио кодек: AC3
Видео: 1024×576 (16:9), 23.976 fps, x264 ~1643 kbps avg, 0.116 bit/pixel
Аудио #1: 48 kHz, AC3 Dolby Digital, 3/2 (L,C,R,l,r) + LFE ch, ~384.00 kbps avg | RUS [Novamedia]
Аудио #2: 48 kHz, AC3 Dolby Digital, 3/2 (L,C,R,l,r) + LFE ch, ~448.00 kbps avg | ENG

Дата премьеры (мир): 20 мая 2017
Дата премьеры (РФ): 21 мая 2017

Релиз от: Rip by:

MediaInfo

Общее
Уникальный идентификатор : 229363958035938185506295715950606190407 (0xAC8DE438FB1A485E94A2654AFD948747)
Полное имя : E:OlLanDGroupThe.Wizard.Of.Lies.2017.BDRip(AVC).OlLanDGroup.mkv
Формат : Matroska
Версия формата : Version 2
Размер файла : 2,30 Гбайт
Продолжительность : 2 ч. 12 м.
Общий поток : 2479 Кбит/сек
Название фильма : The Wizard of Lies (2017) #TorpedoUK#
Дата кодирования : UTC 2017-10-06 19:32:54
Программа кодирования : mkvmerge v7.8.0 ('River Man') 32bit built on Apr 3 2015 12:11:22
Библиотека кодирования : libebml v1.3.1 + libmatroska v1.4.2

Видео
Идентификатор : 1
Формат : AVC
Формат/Информация : Advanced Video Codec
Профиль формата : [email protected]
Параметр CABAC формата : Да
Параметр ReFrames формата : 10 кадров
Идентификатор кодека : V_MPEG4/ISO/AVC
Продолжительность : 2 ч. 12 м.
Битрейт : 1643 Кбит/сек
Ширина : 1024 пикселя
Высота : 576 пикселей
Соотношение сторон : 16:9
Режим частоты кадров : Постоянный
Частота кадров : 23,976 (24000/1001) кадра/сек
Цветовое пространство : YUV
Субдискретизация насыщенности : 4:2:0
Битовая глубина : 8 бит
Тип развёртки : Прогрессивная
Бит/(Пиксели*Кадры) : 0.116
Размер потока : 1,48 Гбайт (64%)
Библиотека кодирования : x264 core 146 r2538 121396c
Настройки программы : cabac=1 / ref=10 / deblock=1:-3:-3 / analyse=0x3:0x133 / me=umh / subme=11 / psy=1 / psy_rd=1.00:0.07 / mixed_ref=1 / me_range=48 / chroma_me=1 / trellis=2 / 8x8dct=1 / cqm=0 / deadzone=21,11 / fast_pskip=0 / chroma_qp_offset=-3 / threads=6 / lookahead_threads=1 / sliced_threads=0 / nr=0 / decimate=0 / interlaced=0 / bluray_compat=0 / constrained_intra=0 / bframes=10 / b_pyramid=2 / b_adapt=2 / b_bias=0 / direct=3 / weightb=1 / open_gop=0 / weightp=2 / keyint=240 / keyint_min=23 / scenecut=40 / intra_refresh=0 / rc_lookahead=40 / rc=2pass / mbtree=0 / bitrate=1643 / ratetol=1.0 / qcomp=0.60 / qpmin=0 / qpmax=69 / qpstep=4 / cplxblur=20.0 / qblur=0.5 / vbv_maxrate=50000 / vbv_bufsize=62500 / nal_hrd=none / filler=0 / ip_ratio=1.40 / pb_ratio=1.30 / aq=1:1.00
Язык : English
Default : Да
Forced : Нет

Аудио #1
Идентификатор : 2
Формат : AC-3
Формат/Информация : Audio Coding 3
Расширение режима : CM (complete main)
Параметр Endianness формата : Big
Идентификатор кодека : A_AC3
Продолжительность : 2 ч. 12 м.
Вид битрейта : Постоянный
Битрейт : 384 Кбит/сек
Каналы : 6 каналов
Расположение каналов : Front: L C R, Side: L R, LFE
Частота : 48,0 КГц
Частота кадров : 31,250 кадров/сек (1536 spf)
Битовая глубина : 16 бит
Метод сжатия : С потерями
Размер потока : 364 Мбайт (15%)
Заголовок : MVO | Novamedia
Язык : Russian
Default : Да
Forced : Нет

Аудио #2
Идентификатор : 3
Формат : AC-3
Формат/Информация : Audio Coding 3
Расширение режима : CM (complete main)
Параметр Endianness формата : Big
Идентификатор кодека : A_AC3
Продолжительность : 2 ч. 12 м.
Вид битрейта : Постоянный
Битрейт : 448 Кбит/сек
Каналы : 6 каналов
Расположение каналов : Front: L C R, Side: L R, LFE
Частота : 48,0 КГц
Частота кадров : 31,250 кадров/сек (1536 spf)
Битовая глубина : 16 бит
Метод сжатия : С потерями
Размер потока : 425 Мбайт (18%)
Заголовок : Original
Язык : English
Default : Нет
Forced : Нет

Текст
Идентификатор : 4
Формат : UTF-8
Идентификатор кодека : S_TEXT/UTF8
Идентификатор кодека/Информация : UTF-8 Plain Text
Заголовок : SDH
Язык : English
Default : Нет
Forced : Нет

Меню
00:00:00.000 : en:00:00:00.000
00:12:36.254 : en:00:12:36.254
00:22:45.154 : en:00:22:45.154
00:30:14.729 : en:00:30:14.729
00:39:44.090 : en:00:39:44.090
00:48:29.489 : en:00:48:29.489
01:02:36.210 : en:01:02:36.210
01:14:46.606 : en:01:14:46.606
01:24:02.412 : en:01:24:02.412
01:33:22.971 : en:01:33:22.971
01:41:14.734 : en:01:41:14.734
01:49:13.171 : en:01:49:13.171
01:57:35.631 : en:01:57:35.631
02:08:52.140 : en:02:08:52.140

Скриншоты




Скачать The.Wizard.Of.Lies.2017.BDRipAVC.OlLanDGroup.mk.torrent

просмотры: 7

Post Comment