Военный Зарубежные фильмы

Последний из могикан / The Last of the Mohicans (1992) BDRip 1080p от FreeRutor | D, P, P2 | Director’s Definitive Cut

Информация о фильме
Название: Последний из могикан
Оригинальное название: The Last of the Mohicans
Год выхода: 1992
Жанр: Боевик, драма, мелодрама, приключения, военный
Режиссер: Майкл Манн
В ролях: Дэниэл Дэй-Льюис, Мэделин Стоу, Рассел Минс, Эрик Швейг, Джоди Мэй, Стивен Вэддингтон, Уэс Стьюди, Морис Роевз, Патрис Шеро, Эдвард Блэтчфорд

О фильме:
1757 год. Англо-французская война за американские колонии в самом разгаре. Дочери полковника Манро пытаются пробраться в осажденный французами английский форт. Им на помощь приходит молодой белый охотник Соколиный Глаз. Между Соколиным Глазом, выросшим среди индейцев племени могикан, и старшей из дочерей, утонченной Корой, вспыхивает взаимное чувство. Но Кора и ее сестра попадают в плен к союзникам французов — гуронам, и от мучительной смерти их могут спасти только Соколиный Глаз и его верные друзья — индейцы…

Выпущено: США / Morgan Creek Productions
Продолжительность: 01:54:33
Перевод: Дублированный, профессиональный многоголосый, профессиональный двухголосый

Файл
Формат: MKV
Качество: BDRip 1080p
Видео: MPEG-4 AVC, 17,3 Мбит/с, 1920×800
Аудио 01: Русский (АС3, 2 сh, 256 Кбит/с) DUB ( со вставками многоголосого )
Аудио 02: Русский (АС3, 6 ch, 448 Кбит/с) MVO
Аудио 03: Русский (АС3, 2 ch, 192 Кбит/с) MVO ( CTC )
Аудио 04: Русский (АС3, 2 ch, 192 Кбит/с) DVO ( Екатеринбург Арт )
Аудио 05: Русский (АС3, 2 ch, 192 Кбит/с) DVO ( SDI Media )
Аудио 06: Английский (DTS, 6 ch, 1536 Кбит/с) Original
Аудио 07: Английский (HE-AAC, 2 ch, 192 Кбит/с) Commentary
Субтитры: Русские, английские

Семпл

MI

Общее
Уникальный идентификатор : 187149345840047917379360855724147359172 (0x8CCBA725EF35420BAF942BC9D8243DC4)
Полное имя : E:Раздача-BDRipPosledniyi_Iz_Mogikan.1992.BDRip 1080p_FreeRutor.(Director's Cut).mkv
Формат : Matroska
Версия формата : Version 2
Размер файла : 13,9 Гбайт
Продолжительность : 1 ч. 54 м.
Общий поток : 17,3 Мбит/сек
Название фильма : The Last of the Mohicans (Director's Cut) (1992) BDRip 1080p_FreeRutor_grab777
Дата кодирования : UTC 2017-09-01 14:10:40
Программа кодирования : mkvmerge v5.8.0 ('No Sleep / Pillow') built on Sep 2 2012 15:37:04
Библиотека кодирования : libebml v1.2.3 + libmatroska v1.3.0

Видео
Идентификатор : 1
Формат : AVC
Формат/Информация : Advanced Video Codec
Профиль формата : [email protected]
Параметр CABAC формата : Да
Параметр ReFrames формата : 5 кадров
Идентификатор кодека : V_MPEG4/ISO/AVC
Продолжительность : 1 ч. 54 м.
Ширина : 1920 пикселей
Высота : 800 пикселей
Соотношение сторон : 2,40:1
Режим частоты кадров : Постоянный
Частота кадров : 23,976 кадра/сек
Цветовое пространство : YUV
Субдискретизация насыщенности : 4:2:0
Битовая глубина : 8 бит
Тип развёртки : Прогрессивная
Заголовок : Rip_by_grab777
Библиотека кодирования : x264 core 144 r2525 40bb568
Настройки программы : cabac=1 / ref=5 / deblock=1:-3:-3 / analyse=0x3:0x113 / me=umh / subme=10 / psy=1 / psy_rd=1.00:0.00 / mixed_ref=1 / me_range=32 / chroma_me=1 / trellis=2 / 8x8dct=1 / cqm=1 / deadzone=21,11 / fast_pskip=0 / chroma_qp_offset=-1 / threads=12 / lookahead_threads=2 / sliced_threads=0 / nr=0 / decimate=1 / interlaced=0 / bluray_compat=0 / constrained_intra=0 / bframes=8 / b_pyramid=2 / b_adapt=2 / b_bias=0 / direct=3 / weightb=1 / open_gop=0 / weightp=2 / keyint=230 / keyint_min=23 / scenecut=40 / intra_refresh=0 / rc_lookahead=40 / rc=crf / mbtree=0 / crf=17.9 / qcomp=0.70 / qpmin=10 / qpmax=69 / qpstep=4 / vbv_maxrate=62500 / vbv_bufsize=78125 / crf_max=0.0 / nal_hrd=none / filler=0 / ip_ratio=1.30 / pb_ratio=1.20 / aq=3:0.70
Язык : English
Default : Да
Forced : Нет

Аудио #1
Идентификатор : 2
Формат : AC-3
Формат/Информация : Audio Coding 3
Расширение режима : CM (complete main)
Параметр Endianness формата : Big
Идентификатор кодека : A_AC3
Продолжительность : 1 ч. 54 м.
Вид битрейта : Постоянный
Битрейт : 256 Кбит/сек
Каналы : 2 канала
Расположение каналов : Front: L R
Частота : 48,0 КГц
Битовая глубина : 16 бит
Метод сжатия : С потерями
Размер потока : 210 Мбайт (1%)
Заголовок : Dub ( со вставками многоголосого )
Язык : Russian
Default : Да
Forced : Нет

Аудио #2
Идентификатор : 3
Формат : AC-3
Формат/Информация : Audio Coding 3
Расширение режима : CM (complete main)
Параметр Endianness формата : Big
Идентификатор кодека : A_AC3
Продолжительность : 1 ч. 54 м.
Вид битрейта : Постоянный
Битрейт : 448 Кбит/сек
Каналы : 6 каналов
Расположение каналов : Front: L C R, Side: L R, LFE
Частота : 48,0 КГц
Битовая глубина : 16 бит
Метод сжатия : С потерями
Размер потока : 367 Мбайт (3%)
Заголовок : MVO
Язык : Russian
Default : Нет
Forced : Нет

Аудио #3
Идентификатор : 4
Формат : AC-3
Формат/Информация : Audio Coding 3
Расширение режима : CM (complete main)
Параметр Endianness формата : Big
Идентификатор кодека : A_AC3
Продолжительность : 1 ч. 54 м.
Вид битрейта : Постоянный
Битрейт : 192 Кбит/сек
Каналы : 2 канала
Расположение каналов : Front: L R
Частота : 48,0 КГц
Битовая глубина : 16 бит
Метод сжатия : С потерями
Размер потока : 157 Мбайт (1%)
Заголовок : MVO ( CTC )
Язык : Russian
Default : Нет
Forced : Нет

Аудио #4
Идентификатор : 5
Формат : AC-3
Формат/Информация : Audio Coding 3
Расширение режима : CM (complete main)
Параметр Endianness формата : Big
Идентификатор кодека : A_AC3
Продолжительность : 1 ч. 54 м.
Вид битрейта : Постоянный
Битрейт : 192 Кбит/сек
Каналы : 2 канала
Расположение каналов : Front: L R
Частота : 48,0 КГц
Битовая глубина : 16 бит
Метод сжатия : С потерями
Размер потока : 157 Мбайт (1%)
Заголовок : DVO ( Екатеринбург Арт )
Язык : Russian
Default : Нет
Forced : Нет

Аудио #5
Идентификатор : 6
Формат : AC-3
Формат/Информация : Audio Coding 3
Расширение режима : CM (complete main)
Параметр Endianness формата : Big
Идентификатор кодека : A_AC3
Продолжительность : 1 ч. 54 м.
Вид битрейта : Постоянный
Битрейт : 192 Кбит/сек
Каналы : 2 канала
Расположение каналов : Front: L R
Частота : 48,0 КГц
Битовая глубина : 16 бит
Метод сжатия : С потерями
Размер потока : 157 Мбайт (1%)
Заголовок : DVO ( SDI Media )
Язык : Russian
Default : Нет
Forced : Нет

Аудио #6
Идентификатор : 7
Формат : DTS
Формат/Информация : Digital Theater Systems
Режим : 16
Параметр Endianness формата : Big
Идентификатор кодека : A_DTS
Продолжительность : 1 ч. 54 м.
Вид битрейта : Постоянный
Битрейт : 1509 Кбит/сек
Каналы : 6 каналов
Расположение каналов : Front: L C R, Side: L R, LFE
Частота : 48,0 КГц
Битовая глубина : 24 бит
Метод сжатия : С потерями
Размер потока : 1,21 Гбайт (9%)
Заголовок : Original
Язык : English
Default : Нет
Forced : Нет

Аудио #7
Идентификатор : 8
Формат : AAC
Формат/Информация : Advanced Audio Codec
Профиль формата : HE-AAC / LC
Идентификатор кодека : A_AAC
Продолжительность : 1 ч. 54 м.
Каналы : 2 канала
Расположение каналов : Front: L R
Частота : 48,0 КГц / 24,0 КГц
Метод сжатия : С потерями
Задержка видео : 31 мс.
Заголовок : Commentary
Язык : English
Default : Нет
Forced : Нет

Текст #1
Идентификатор : 9
Формат : UTF-8
Идентификатор кодека : S_TEXT/UTF8
Идентификатор кодека/Информация : UTF-8 Plain Text
Заголовок : Forced
Язык : Russian
Default : Нет
Forced : Нет

Текст #2
Идентификатор : 10
Формат : UTF-8
Идентификатор кодека : S_TEXT/UTF8
Идентификатор кодека/Информация : UTF-8 Plain Text
Язык : Russian
Default : Нет
Forced : Нет

Текст #3
Идентификатор : 11
Формат : UTF-8
Идентификатор кодека : S_TEXT/UTF8
Идентификатор кодека/Информация : UTF-8 Plain Text
Язык : English
Default : Нет
Forced : Нет

Меню
00:00:00.000 : en:00:00:00.000
00:01:55.365 : en:00:01:55.365
00:04:29.060 : en:00:04:29.060
00:06:48.241 : en:00:06:48.241
00:08:43.273 : en:00:08:43.273
00:12:32.961 : en:00:12:32.961
00:14:55.103 : en:00:14:55.103
00:22:15.668 : en:00:22:15.668
00:24:32.930 : en:00:24:32.930
00:28:11.940 : en:00:28:11.940
00:33:58.411 : en:00:33:58.411
00:43:30.316 : en:00:43:30.316
00:45:41.739 : en:00:45:41.739
00:47:19.378 : en:00:47:19.378
00:48:52.888 : en:00:48:52.888
00:52:03.579 : en:00:52:03.579
00:54:33.353 : en:00:54:33.353
00:57:42.668 : en:00:57:42.668
01:00:09.523 : en:01:00:09.523
01:03:15.291 : en:01:03:15.291
01:07:43.726 : en:01:07:43.726
01:10:35.022 : en:01:10:35.022
01:12:41.065 : en:01:12:41.065
01:18:58.776 : en:01:18:58.776
01:22:16.890 : en:01:22:16.890
01:24:50.544 : en:01:24:50.544
01:31:29.609 : en:01:31:29.609
01:34:46.806 : en:01:34:46.806
01:39:30.131 : en:01:39:30.131
01:44:30.931 : en:01:44:30.931
01:46:38.517 : en:01:46:38.517
01:49:18.385 : en:01:49:18.385
Награды

Оскар, 1993 год
Победитель (1):

* Лучший звук

Золотой глобус, 1993 год
Номинации (1):

* Лучший саундтрек

Британская академия, 1993 год
Победитель (2):

* Лучшая работа оператора
* Лучший грим
Номинации (5):
* Лучшая мужская роль (Дэниэл Дэй-Льюис)
* Лучшие костюмы
* Лучший звук
* Лучший саундтрек
* Лучшая работа художника-постановщика
Интересно

• Экранизация одноимённого произведения Джеймса Фенимора Купера (1826).
• К съёмкам было привлечено порядка 900 индейских статистов со всех концов страны.
• Скверные условия проживания статистов при натурных съёмках в лесу вызвали забастовку среди участников съёмочной группы. В ней приняли участие не только сами статисты, но и исполнители главных ролей Дэниел Дэй-Льюис и Рассел Минс.
• Рассел Минс, несмотря на явную симпатию к режиссёру (и взаимную личную, и политическую симпатию Майкла Манна к нему), отмечал случаи расистского обращения с индейцами со стороны съёмочной группы и откровенного невежества кинематографистов в истории, культуре и обычаях индейцев.
• Эрик Швейг, исполнитель роли Ункаса, в своём интервью редакции фан-сайта фильма выразил мнение, что фильм проиграл от того, что внимание было сосредоточено преимущественно на белых звёздах фильма — Стоу и Дэй-Льюисе в ущерб «индейской» составляющей сюжета.
• Дэй-Льюис, приверженец системы Станиславского, известный скрупулёзным вниманием к разработке своих образов, для съёмок в фильме набрал вес, серьёзно улучшил свою физическую форму, научился стрелять из кремнёвого ружья и управлять каноэ. Этот факт многократно муссировался в англоязычной печати, однако мало кто обратил внимание на то, что Рассел Минс, которому в момент съёмок было за пятьдесят, снимался в охотничьих и боевых сценах без каких либо скидок на возраст. По словам Манна в его интервью, вышедшем после смерти Минса, тот набрал необходимую физическую форму за три недели.
• Эрик Швейг, отзываясь о работе над ролью, заметил, что помнит больше необходимость постоянно много бегать, чем «вживание в образ».
• Актриса Джоди Мэй на вопросы о своей роли Алисы в одном из интервью ответила, что её роль осталась преимущественно на полу монтажной. Особенный ажиотаж фанатов фильма вызывала любовная сцена Алисы и Ункаса, прописанная в сценарии довольно откровенной, но не вошедшая в фильм.
О релизе

Релиз от: FreeRutor
by: grab777
Скриншоты

Релиз от:


Скачать Posledniyi_Iz_Mogikan.1992.BDRip_1080p_FreeRuto.torrent

просмотры: 1

Post Comment