Аниме

Гасараки / Gasaraki [S01] (1998) DVDRip-AVC | AniDub

Информация о фильме
Название: Гасараки
Оригинальное название: Gasaraki
Год выхода: 1998
Жанр: приключения, драма, фантастика, меха
Режиссер: Такахаси Рёсукэ
Художник: Икэда Сигэми
В ролях: Хияма Нобуюки, Кингэцу Мами, Короги Сатоми, Такада Юдзи, Тиба Иссин, Кояма Такэхиро, Акимото Ёсукэ, Миядзаки Иссэй, Токухиро Нацуки, Хидака Наруми, Тангэ Сакура, Такаяма Минами, Фудзимото Юдзуру, Хаями Сё, Ясуй Кунихико, Хиромори Синго, Кисино Юкимаса, Окава Тору, Аримото Кинрю, Какэгава Хирохико, Нака Хироси, Сугавара Дзюнъити, Наката Кадзухиро, Сато Масахару, Канна Нобутоси, Фудзики Сэйко, Цудзи Синпати, Комура Тэцуо, Иванага Тэцуя, Накадзима Тосихико, Морикава Тосиюки, Исидзука Унсё, Такамори Ёсино, Хори Юкитоси, Огата Кэнъити
О фильме:
Клан Гова стремится установить контакт с силой известной под именем Гасараки. Все эти действия разворачиваются на фоне военных действий, в которых шагающие военные машины являются основным видом вооружения. Синтез современных военных технологий и традиционных ценностей Японской культуры создают великолепную основу для разворачивающегося по ходу действия конфликта.
Это аниме состоит из графиков, отчётов, докладов, военной тактики, мировой политики, техники и политической философии. Всё остальное в мизерных пропорциях добавлено в сюжет в виде приправы к и без того острому блюду. Здесь речь не идёт о личностях, их характеры скрыты от зрителя и не раскрываются в течнии повествования. История человека заменена на историю человечества. Особняком стоит проблема 2х пилотов, оказавшихся по разные стороны баррикад, ставших жертвами научных экспериментов: их поиск своего я в прошлом и своего места в мире в настоящем. Но они лишь боги войны, на которых молятся смертные, но сущность в них человеческая. Так значит человек есть война и разрушение?… Нет. Человек есть разум направляющий свои стремления по волнам своих убеждений в берегах окружающего мира. Все герои правы по своему. Но для всех один закон — выживает сильнейший.


World Art | MAL

Страна: Япония
Студия: Sunrise
Продолжительность: 00:24:35
Язык: Русский, Японский, Английский
Перевод: Любительский (двухголосый, закадровый)

Файл
Качество: DVDRip-AVC
Формат: MKV
Кодек: х264
Аудио кодек: AAC, Vorbis
Видео: 704×480, 23.976 fps, 1600 kbps
Аудио RUS: 48.0 kHz, AAC, 2 ch, 192 kbps — AniDub
Аудио JAP: 48.0 kHz, Vorbis, 2 ch, 128 kbps
Аудио ENG: 48.0 kHz, Vorbis, 2 ch, 128 kbps
Субтитры: русские (встроенные полный перевод, ASS) — Станислав Фролов
Субтитры: английские (встроенные полный перевод, ASS)

Релиз от:
Озвучивание: Azazel, Торгиль
Перевод: Станислав Фролов
Тайминг и работа со звуком: Kombik, Sakuragi_R, Mr.Agres, DS2902

Скриншоты

Список серий
01. On the Anciant Stage of Stone
02. Opening Movements
03. Tantric Circle
04. Mirage
05. The Touching
06. The Puppet
07. Return
08. Inferno
09. Storehouse
10. Kugai
11. Ties
12. Unravel
13. Disembark
14. Companions
15. The Threshold
16. Karma
17. Chaos
18. Rear Windows
19. Wails
20. Upheaval
21. Run
22. Personification
23. Eternal
24. Punctuation
25. Gasara

MediaInfo
General
Format : Matroska
Format version : Version 4 / Version 2
File size : 355 MiB
Duration : 24 min
Overall bit rate mode : Variable
Overall bit rate : 2 018 kb/s
Encoded date : UTC 2017-08-07 12:47:35
Writing application : mkvmerge v8.3.0 ('Over the Horizon') 64bit
Writing library : libebml v1.3.1 + libmatroska v1.4.2

Video
ID : 1
Format : AVC
Format/Info : Advanced Video Codec
Format profile : [email protected]
Format settings, CABAC : Yes
Format settings, ReFrames : 16 frames
Codec ID : V_MPEG4/ISO/AVC
Duration : 24 min
Bit rate : 1 600 kb/s
Width : 704 pixels
Height : 480 pixels
Display aspect ratio : 3:2
Frame rate mode : Variable
Frame rate : 24.090 FPS
Original frame rate : 23.976 (23976/1000) FPS
Color space : YUV
Chroma subsampling : 4:2:0
Bit depth : 8 bits
Scan type : Progressive
Bits/(Pixel*Frame) : 0.197
Stream size : 282 MiB (79%)
Writing library : x264 core 54 svn-620M
Encoding settings : cabac=1 / ref=16 / deblock=1:1:1 / analyse=0x3:0x133 / me=umh / subme=6 / brdo=1 / mixed_ref=1 / me_range=16 / chroma_me=1 / trellis=2 / 8x8dct=1 / cqm=0 / deadzone=21,11 / chroma_qp_offset=0 / threads=1 / nr=50 / decimate=0 / mbaff=0 / bframes=3 / b_pyramid=1 / b_adapt=1 / b_bias=0 / direct=3 / wpredb=1 / bime=1 / keyint=240 / keyint_min=24 / scenecut=40 / rc=2pass / bitrate=1600 / ratetol=90.0 / rceq='blurCplx^(1-qComp)' / qcomp=0.20 / qpmin=12 / qpmax=20 / qpstep=4 / cplxblur=20.0 / qblur=0.5 / ip_ratio=1.40 / pb_ratio=1.30
Language : English
Default : Yes
Forced : No

Audio #1
ID : 2
Format : AAC
Format/Info : Advanced Audio Codec
Format profile : LC
Codec ID : A_AAC
Duration : 24 min
Bit rate : 183 kb/s
Channel(s) : 2 channels
Channel positions : Front: L R
Sampling rate : 48.0 kHz
Frame rate : 46.875 FPS (1024 spf)
Compression mode : Lossy
Stream size : 32.2 MiB (9%)
Title : AniDub
Language : Russian
Default : Yes
Forced : No

Audio #2
ID : 3
Format : Vorbis
Format settings, Floor : 1
Codec ID : A_VORBIS
Duration : 24 min
Bit rate mode : Variable
Bit rate : 128 kb/s
Channel(s) : 2 channels
Sampling rate : 48.0 kHz
Frame rate : 61.719 FPS (778 spf)
Compression mode : Lossy
Stream size : 20.1 MiB (6%)
Title : Japanese Audio
Writing application : Made with BeSweet v1.5b31
Writing library : aoTuV Beta 5 (UTC 2006-10-24)
Language : Japanese
Default : No
Forced : No
Encoded_Application/Url : http://DSPguru.doom9.org

Audio #3
ID : 4
Format : Vorbis
Format settings, Floor : 1
Codec ID : A_VORBIS
Duration : 24 min
Bit rate mode : Variable
Bit rate : 128 kb/s
Channel(s) : 2 channels
Sampling rate : 48.0 kHz
Frame rate : 62.571 FPS (767 spf)
Compression mode : Lossy
Stream size : 20.0 MiB (6%)
Title : English Audio
Writing application : Made with BeSweet v1.5b31
Writing library : aoTuV Beta 5 (UTC 2006-10-24)
Language : English
Default : No
Forced : No
Encoded_Application/Url : http://DSPguru.doom9.org

Text #1
ID : 5
Format : ASS
Codec ID : S_TEXT/ASS
Codec ID/Info : Advanced Sub Station Alpha
Duration : 20 min
Bit rate : 132 b/s
Count of elements : 239
Compression mode : Lossless
Stream size : 20.3 KiB (0%)
Title : Полные субтитры
Language : Russian
Default : Yes
Forced : No

Text #2
ID : 6
Format : ASS
Codec ID : S_TEXT/ASS
Codec ID/Info : Advanced Sub Station Alpha
Duration : 22 min
Bit rate : 99 b/s
Count of elements : 260
Compression mode : Lossless
Stream size : 16.4 KiB (0%)
Title : English Subtitles
Language : English
Default : No
Forced : No


Скачать Gasaraki_TV_DVDRip_480p.torrent

просмотры: 9

Post Comment