Боевик Зарубежные фильмы

Захват в Северном море / North Sea Hijack (1979) BDRip 1080p от MediaClub | P2

Информация о фильме
Название: Захват в Северном море
Оригинальное название: North Sea Hijack
Год выхода: 1979
Жанр: Боевик, триллер, приключения
Режиссер: Эндрю В. МакЛаглен
В ролях: Роджер Мур, Джеймс Мэйсон, Энтони Перкинс, Майкл Паркс, Дэвид Хедисон, Джек Уотсон, Джордж Бейкер, Джереми Клайд, Дэвид Вуд, Фэйт Брук

О фильме:
Известный и безжалостный террорист Крамер вместе со своими напарниками захватывает две нефтяные бурильные вышки в Северном море и требует у британского правительства огромный выкуп в 25 миллионов долларов, в противном случае угрожая взорвать их. У правительства есть только сутки, чтобы выполнить эти требования. На помощь военным приходит отставной военный офицер Руфус вместе со своей анти-террористической командой. Риторический вопрос: сможет ли Руфус обезвредить террористов до истечения срока?…

Страна: Великобритания
Студия: Cinema Seven Productions Ltd., Universal Pictures
Продолжительность: 01:39:33
Перевод: Профессиональный двухголосый закадровый

Файл
Кодек: h.264
Качество: BDRip 1080p
Видео: MPEG-4 AVC, 12800 Кбит/с, 1920×1040, 23,976 кадр/с
Звук:
Русский (AC3, 2 ch, 192 Кбит/с) / Профессиональный двухголосый закадровый
Украинский (AC3, 2 ch, 192 Кбит/с) / Многоголосый закадровый (НЛО-TV)
Английский (DTS, 2 ch, 1509 Кбит/с)
Субтитры: Русские, английские

Семпл

О релизе
Автор релиза — Silverok, за BD-Remux спасибо Scarlett
Сохранены оригинальные чаптеры как на Blu-ray
За синхронизацию дорожек спасибо Spiellberg

MI
General
Unique ID : 197101944073509467284568332061711075164 (0x944874205CC629FA955F7627D291075C)
Complete name : D:uTorrentZahvat.v.severnom.more.1979.BDRip.1080p.MediaClub.mkv
Format : Matroska
Format version : Version 4 / Version 2
File size : 10.2 GiB
Duration : 1 h 39 min
Overall bit rate : 14.7 Mb/s
Encoded date : UTC 2017-09-29 08:41:43 / UTC 2017-09-28T22:00:25Z
Writing application : mkvmerge v15.0.0 ('Duel with the Devil') 64-bit
Writing library : libebml v1.3.5 + libmatroska v1.4.5 / Lavf57.7.2

Video
ID : 1
Format : AVC
Format/Info : Advanced Video Codec
Format profile : [email protected]
Format settings, CABAC : Yes
Format settings, ReFrames : 4 frames
Codec ID : V_MPEG4/ISO/AVC
Duration : 1 h 39 min
Bit rate : 12.8 Mb/s
Width : 1 920 pixels
Height : 1 040 pixels
Display aspect ratio : 1.85:1
Frame rate mode : Constant
Frame rate : 23.976 (24000/1001) FPS
Color space : YUV
Chroma subsampling : 4:2:0
Bit depth : 8 bits
Scan type : Progressive
Bits/(Pixel*Frame) : 0.267
Stream size : 8.70 GiB (85%)
Title : BDRip by Silverok
Writing library : x264 core 148 r2708 86b7198
Encoding settings : cabac=1 / ref=4 / deblock=1:-3:-3 / analyse=0x3:0x113 / me=umh / subme=11 / psy=1 / psy_rd=1.00:0.00 / mixed_ref=1 / me_range=32 / chroma_me=1 / trellis=2 / 8x8dct=1 / cqm=0 / deadzone=21,11 / fast_pskip=1 / chroma_qp_offset=-2 / threads=12 / lookahead_threads=1 / sliced_threads=0 / nr=0 / decimate=0 / interlaced=0 / bluray_compat=0 / constrained_intra=0 / bframes=12 / b_pyramid=2 / b_adapt=1 / b_bias=0 / direct=1 / weightb=1 / open_gop=0 / weightp=2 / keyint=240 / keyint_min=24 / scenecut=40 / intra_refresh=0 / rc_lookahead=40 / rc=2pass / mbtree=1 / bitrate=12800 / ratetol=1.0 / qcomp=0.60 / qpmin=0 / qpmax=69 / qpstep=4 / cplxblur=20.0 / qblur=0.5 / vbv_maxrate=62500 / vbv_bufsize=78125 / nal_hrd=none / filler=0 / ip_ratio=1.40 / aq=1:1.00
Default : Yes
Forced : No
Color range : Limited
Color primaries : BT.709
Transfer characteristics : BT.709
Matrix coefficients : BT.709
Statistics Tags Issue : mkvmerge v15.0.0 ('Duel with the Devil') 64-bit 2017-09-29 08:41:43 / mkvmerge v15.0.0 ('Duel with the Devil') 64-bit 2017-09-29 08:41:43 / UTC 2017-09-28T22:00:25Z
FromStats_BitRate : 12799553
FromStats_Duration : 01:39:33.051000000
FromStats_FrameCount : 143210
FromStats_StreamSize : 9556548511

Audio #1
ID : 2
Format : AC-3
Format/Info : Audio Coding 3
Format settings, Endianness : Big
Codec ID : A_AC3
Duration : 1 h 39 min
Bit rate mode : Constant
Bit rate : 192 kb/s
Channel(s) : 2 channels
Channel positions : Front: L R
Sampling rate : 48.0 kHz
Frame rate : 31.250 FPS (1536 spf)
Bit depth : 16 bits
Compression mode : Lossy
Stream size : 137 MiB (1%)
Title : Двухголосый закадровый
Language : Russian
Service kind : Complete Main
Default : Yes
Forced : No
Statistics Tags Issue : mkvmerge v15.0.0 ('Duel with the Devil') 64-bit 2017-09-29 08:41:43 / mkvmerge v15.0.0 ('Duel with the Devil') 64-bit 2017-09-29 08:41:43 / UTC 2017-09-28T22:00:25Z
FromStats_BitRate : 192000
FromStats_Duration : 01:39:33.056000000
FromStats_FrameCount : 186658
FromStats_StreamSize : 143353344

Audio #2
ID : 3
Format : AC-3
Format/Info : Audio Coding 3
Format settings, Endianness : Big
Codec ID : A_AC3
Duration : 1 h 39 min
Bit rate mode : Constant
Bit rate : 192 kb/s
Channel(s) : 2 channels
Channel positions : Front: L R
Sampling rate : 48.0 kHz
Frame rate : 31.250 FPS (1536 spf)
Bit depth : 16 bits
Compression mode : Lossy
Stream size : 137 MiB (1%)
Title : Многоголосый закадровый,, НЛО-TV
Language : Ukrainian
Service kind : Complete Main
Default : No
Forced : No
Statistics Tags Issue : mkvmerge v15.0.0 ('Duel with the Devil') 64-bit 2017-09-29 08:41:43 / mkvmerge v15.0.0 ('Duel with the Devil') 64-bit 2017-09-29 08:41:43 / UTC 2017-09-28T22:00:25Z
FromStats_BitRate : 192000
FromStats_Duration : 01:39:33.088000000
FromStats_FrameCount : 186659
FromStats_StreamSize : 143354112

Audio #3
ID : 4
Format : DTS
Format/Info : Digital Theater Systems
Mode : 16
Format settings, Endianness : Big
Codec ID : A_DTS
Duration : 1 h 39 min
Bit rate mode : Constant
Bit rate : 1 509 kb/s
Channel(s) : 2 channels
Channel positions : Front: L R
Sampling rate : 48.0 kHz
Frame rate : 93.750 FPS (512 spf)
Bit depth : 16 bits
Compression mode : Lossy
Stream size : 1.05 GiB (10%)
Language : English
Default : No
Forced : No
Statistics Tags Issue : mkvmerge v15.0.0 ('Duel with the Devil') 64-bit 2017-09-29 08:41:43 / mkvmerge v15.0.0 ('Duel with the Devil') 64-bit 2017-09-29 08:41:43 / UTC 2017-09-28T22:00:25Z
FromStats_BitRate : 1509000
FromStats_Duration : 01:39:33.056000000
FromStats_FrameCount : 559974
FromStats_StreamSize : 1126667688

Text #1
ID : 5
Format : UTF-8
Codec ID : S_TEXT/UTF8
Codec ID/Info : UTF-8 Plain Text
Language : Russian
Default : No
Forced : No
Statistics Tags Issue : mkvmerge v15.0.0 ('Duel with the Devil') 64-bit 2017-09-29 08:41:43 / mkvmerge v15.0.0 ('Duel with the Devil') 64-bit 2017-09-29 08:41:43 / UTC 2017-09-28T22:00:25Z
FromStats_BitRate : 68
FromStats_Duration : 01:37:07.660000000
FromStats_FrameCount : 880
FromStats_StreamSize : 49636

Text #2
ID : 6
Format : UTF-8
Codec ID : S_TEXT/UTF8
Codec ID/Info : UTF-8 Plain Text
Language : English
Default : No
Forced : No
Statistics Tags Issue : mkvmerge v15.0.0 ('Duel with the Devil') 64-bit 2017-09-29 08:41:43 / mkvmerge v15.0.0 ('Duel with the Devil') 64-bit 2017-09-29 08:41:43 / UTC 2017-09-28T22:00:25Z
FromStats_BitRate : 53
FromStats_Duration : 01:37:07.243000000
FromStats_FrameCount : 877
FromStats_StreamSize : 39031

Menu
00:00:00.000 : :Chapter 1
00:10:52.485 : :Chapter 2
00:24:04.234 : :Chapter 3
00:37:05.807 : :Chapter 4
00:48:51.595 : :Chapter 5
01:01:17.048 : :Chapter 6
01:11:31.871 : :Chapter 7
01:22:07.881 : :Chapter 8

Скриншоты

Релиз от: | Silverok


Скачать Zahvat.v.severnom.more.1979.BDRip.1080p.MediaCl.torrent

просмотры: 6

Post Comment