Боевик Зарубежные фильмы

Слежка 2: Снова в засаде / Another Stakeout (1993) BDRip 1080p от NNNB | P, A


Информация о фильме

    Русское название: Слежка 2: Снова в засаде
    Оригинальное название: Another Stakeout
    Год выхода: 1993
    Жанр: Боевик, триллер, комедия, криминал
    Режиссер: Джон Бэдэм
    Выпущено: США
    Продолжительность: 01:52:30
    Перевод: Профессиональный (Многоголосый, закадровый), Авторский (А.Гаврилов, В.Горчаков, Л.Володарский)
    В ролях: Ричард Дрейфусс, Эмилио Эстевез, Рози О’Доннелл, Деннис Фарина, Марша Стрэссмен, Кэти Мориарти, Джон Рубинстайн, Мигель Феррер, Шарон Мофан, Кристофер Дойл

Сюжет фильма

    Полицейским Крису и Биллу вновь доверяют ответственное задание. На этот раз им предстоит разыскать важного свидетеля, который скрывается от мести мафии. Вдвоем они без труда справились бы с этим поручением, но в их дружной компании появляется третий лишний, когда окружной прокурор направляет к ним помощницу Джину. Эта самоуверенная дама приводит с собой собачку — огромного ротвейлера. Вместе они отправляются на поиски. И они обязательно выполнят задание… если по пути песик не слопает друзей, а полицейские и их новая напарница не перестреляют друг друга!..

Файл

    Качество: BDRip 1080p (исходник Blu-ray Disc Remux)
    Видео: 1920×816, 9008 Кбит/сек, 23,976 кадр/сек, AVC, x264, [email protected], 2.35:1, 0.225 Бит/[Пиксели*Кадры]
    Аудио 1: AC-3, 192 Кбит/сек, 2 канала(ов), 48,0 КГц — Многоголосый закадровый / Русский
    Аудио 2: AC-3, 256 Кбит/сек, 2 канала(ов), 48,0 КГц — Одноголосый закадровый, А.Гаврилов / Русский
    Аудио 3: AC-3, 256 Кбит/сек, 2 канала(ов), 48,0 КГц — Одноголосый закадровый, В.Горчаков / Русский
    Аудио 4: AC-3, 256 Кбит/сек, 2 канала(ов), 48,0 КГц — Одноголосый закадровый, Л.Володарский / Русский
    Аудио 5: AC-3, 256 Кбит/сек, 2 канала(ов), 48,0 КГц — Оригинал / Английский
    Субтитры: Русские | Полные, Английские | Полные
    Чаптеры (Главы): Есть


Автор Рипа: Группа:


Скриншоты

MediaInfo
Format : Matroska
Format version : Version 2
File size : 7.75 GiB
Duration : 1h 52mn
Overall bit rate : 9 862 Kbps
Movie name : Слежка 2. Снова в засаде.(1993).BDRip.1080p.[envy]
Encoded date : UTC 2014-06-12 09:42:59
Writing application : mkvmerge v5.8.0 ('No Sleep / Pillow') built on Sep 2 2012 15:37:04
Writing library : libebml v1.2.3 + libmatroska v1.3.0

Video
ID : 1
Format : AVC
Format/Info : Advanced Video Codec
Format profile : [email protected]
Format settings, CABAC : Yes
Format settings, ReFrames : 5 frames
Codec ID : V_MPEG4/ISO/AVC
Duration : 1h 52mn
Bit rate : 8 449 Kbps
Nominal bit rate : 9 008 Kbps
Width : 1 920 pixels
Height : 816 pixels
Display aspect ratio : 2.35:1
Frame rate mode : Constant
Frame rate : 23.976 fps
Color space : YUV
Chroma subsampling : 4:2:0
Bit depth : 8 bits
Scan type : Progressive
Bits/(Pixel*Frame) : 0.225
Stream size : 6.64 GiB (86%)
Title : Слежка 2. Снова в засаде.(1993).BDRip.1080p.[envy]
Writing library : x264 core 142 r2431 ac76440
Encoding settings : cabac=1 / ref=5 / deblock=1:-3:-2 / analyse=0x3:0x133 / me=umh / subme=11 / psy=1 / psy_rd=1.00:0.00 / mixed_ref=1 / me_range=32 / chroma_me=1 / trellis=2 / 8x8dct=1 / cqm=0 / deadzone=21,11 / fast_pskip=0 / chroma_qp_offset=-2 / threads=12 / lookahead_threads=1 / sliced_threads=0 / nr=0 / decimate=1 / interlaced=0 / bluray_compat=0 / constrained_intra=0 / bframes=5 / b_pyramid=2 / b_adapt=2 / b_bias=0 / direct=3 / weightb=1 / open_gop=0 / weightp=2 / keyint=240 / keyint_min=23 / scenecut=40 / intra_refresh=0 / rc=2pass / mbtree=0 / bitrate=9008 / ratetol=2.0 / qcomp=0.60 / qpmin=0 / qpmax=69 / qpstep=4 / cplxblur=20.0 / qblur=0.5 / ip_ratio=1.40 / pb_ratio=1.30 / aq=2:1.00
Language : English
Default : Yes
Forced : No

Audio #1
ID : 2
Format : AC-3
Format/Info : Audio Coding 3
Mode extension : CM (complete main)
Format settings, Endianness : Big
Codec ID : A_AC3
Duration : 1h 52mn
Bit rate mode : Constant
Bit rate : 192 Kbps
Channel count : 2 channels
Channel positions : Front: L R
Sampling rate : 48.0 KHz
Bit depth : 16 bits
Compression mode : Lossy
Stream size : 155 MiB (2%)
Title : MVO
Language : Russian
Default : Yes
Forced : No

Audio #2
ID : 3
Format : AC-3
Format/Info : Audio Coding 3
Mode extension : CM (complete main)
Format settings, Endianness : Big
Codec ID : A_AC3
Duration : 1h 52mn
Bit rate mode : Constant
Bit rate : 256 Kbps
Channel count : 2 channels
Channel positions : Front: L R
Sampling rate : 48.0 KHz
Bit depth : 16 bits
Compression mode : Lossy
Stream size : 206 MiB (3%)
Title : Gavrilov
Language : Russian
Default : No
Forced : No

Audio #3
ID : 4
Format : AC-3
Format/Info : Audio Coding 3
Mode extension : CM (complete main)
Format settings, Endianness : Big
Codec ID : A_AC3
Duration : 1h 52mn
Bit rate mode : Constant
Bit rate : 256 Kbps
Channel count : 2 channels
Channel positions : Front: L R
Sampling rate : 48.0 KHz
Bit depth : 16 bits
Compression mode : Lossy
Stream size : 206 MiB (3%)
Title : Gorchakov
Language : Russian
Default : No
Forced : No

Audio #4
ID : 5
Format : AC-3
Format/Info : Audio Coding 3
Mode extension : CM (complete main)
Format settings, Endianness : Big
Codec ID : A_AC3
Duration : 1h 52mn
Bit rate mode : Constant
Bit rate : 256 Kbps
Channel count : 2 channels
Channel positions : Front: L R
Sampling rate : 48.0 KHz
Bit depth : 16 bits
Compression mode : Lossy
Stream size : 206 MiB (3%)
Title : Volodarskij
Language : Russian
Default : No
Forced : No

Audio #5
ID : 6
Format : AC-3
Format/Info : Audio Coding 3
Mode extension : CM (complete main)
Format settings, Endianness : Big
Codec ID : A_AC3
Duration : 1h 52mn
Bit rate mode : Constant
Bit rate : 256 Kbps
Channel count : 2 channels
Channel positions : Front: L R
Sampling rate : 48.0 KHz
Bit depth : 16 bits
Compression mode : Lossy
Stream size : 206 MiB (3%)
Title : Eng
Language : English
Default : No
Forced : No

Text #1
ID : 7
Format : UTF-8
Codec ID : S_TEXT/UTF8
Codec ID/Info : UTF-8 Plain Text
Title : full
Language : Russian
Default : No
Forced : No

Text #2
ID : 8
Format : UTF-8
Codec ID : S_TEXT/UTF8
Codec ID/Info : UTF-8 Plain Text
Title : full
Language : English
Default : No
Forced : No

Menu
00:00:00.000 : :Chapter 01
00:04:45.827 : :Chapter 02
00:11:13.381 : :Chapter 03
00:16:34.827 : :Chapter 04
00:24:09.781 : :Chapter 05
00:31:50.909 : :Chapter 06
00:38:10.371 : :Chapter 07
00:47:05.864 : :Chapter 08
00:54:26.221 : :Chapter 09
01:01:35.942 : :Chapter 10
01:05:09.363 : :Chapter 11
01:12:40.354 : :Chapter 12
01:18:27.202 : :Chapter 13
01:30:04.941 : :Chapter 14
01:42:00.113 : :Chapter 15



Скачать Slezhka.2.1993.BDRip.18p.envy.torrent

просмотры: 4

Post Comment