Мультипликация

Конь БоДжек / BoJack Horseman [S04] (2017) WEB-DLRip 720p | OMSKBIRD

Информация о фильме
Название: Конь БоДжек
Оригинальное название: BoJack Horseman
Год выхода: 2017
Жанр: Мультфильм, драма, комедия, сатира
Режиссер: Рафаэль Боб-Уоксберг
Роли озвучивали: Уилл Арнетт, Эми Седарис, Элисон Бри, Аарон Пол, Пол Ф. Томпкинс, Адам Коновер, Рафаэль Боб-Ваксберг, Кристен Шаал, Анджела Бассетт, Пэттон Освальт и др.

О фильме:
Действие происходит в мире населенном антропоморфными животными и людьми. Большая часть сюжета происходит в Лос-Анджелесе. БоДжек — звезда ситуационной комедии, популярной в конце 80-х — начале 90-х годов, на момент времени происходящего в сериале, БоДжек переживает кризис среднего возраста. В попытках вернуть былую популярность и любовь публики, БоДжек пытается написать автобиографию. Но не справляется с этим ввиду собственной лени, после уговоров агента и издателя, он нанимает писателя Диану Нгуен, которая проводит с ним много времени интервьюируя его, узнавая о его прошлом и работе в сериале. Впоследствии между ними возникает симпатия. Сюжет подается нам вперемешку с воспоминаниями БоДжека и его нынешним положением. Под конец первого сезона, вся сюжетная линия объединяется и зритель видит полную картину жизненного пути Коня БоДжека.

Страна: США
Продолжительность: ~ 25 мин. серия
Перевод: Любительский (многоголосый закадровый) | OMSKBIRD

Файл
Кодек: MPEG-4 AVC
Качество: WEB-DLRip 720p
Видео: AVC, 1280×720 (16:9), 23.976 fps, ~ 3000 kbps
Звук: Аудио rus: AC-3, 48 KHz, 2 ch, 192 kbps | OMSKBIRD records

Семпл

Присутствует реклама!

Скриншоты

Mediainfo:
General
Unique ID : 222847426978273213778179350423816907218 (0xA7A6DA6F8E5A245EA42C81BB0FF429D2)
Complete name : F:Мои ДокументыВидеоРАЗДАЧИКонэкBoJack Horseman S04 WEBRip 720p (OMSKBIRD)BoJack Horseman S04E01 WEBRip 720p (OMSKBIRD).mkv
Format : Matroska
Format version : Version 2
File size : 593 MiB
Duration : 27mn 2s
Overall bit rate : 3 067 Kbps
Encoded date : UTC 2017-09-09 08:16:20
Writing application : mkvmerge v4.0.0 ('The Stars were mine') сборка от Jun 6 2010 16:18:42
Writing library : libebml v1.0.0 + libmatroska v1.0.0

Video
ID : 1
Format : AVC
Format/Info : Advanced Video Codec
Format profile : [email protected]
Format settings, CABAC : Yes
Format settings, ReFrames : 3 frames
Codec ID : V_MPEG4/ISO/AVC
Duration : 27mn 2s
Bit rate : 2 814 Kbps
Width : 1 280 pixels
Height : 720 pixels
Display aspect ratio : 16:9
Frame rate : 23.976 fps
Standard : PAL
Color space : YUV
Chroma subsampling : 4:2:0
Bit depth : 8 bits
Scan type : Progressive
Bits/(Pixel*Frame) : 0.127
Stream size : 544 MiB (92%)
Language : English
Default : Yes
Forced : No
Color primaries : BT.709-5, BT.1361, IEC 61966-2-4, SMPTE RP177
Transfer characteristics : BT.709-5, BT.1361
Matrix coefficients : BT.709-5, BT.1361, IEC 61966-2-4 709, SMPTE RP177

Audio
ID : 2
Format : AC-3
Format/Info : Audio Coding 3
Mode extension : CM (complete main)
Format settings, Endianness : Big
Codec ID : A_AC3
Duration : 27mn 2s
Bit rate mode : Constant
Bit rate : 192 Kbps
Channel(s) : 2 channels
Channel positions : Front: L R
Sampling rate : 48.0 KHz
Bit depth : 16 bits
Compression mode : Lossy
Stream size : 37.1 MiB (6%)
Default : Yes
Forced : No

Релиз:
Перевод • Татьяна Масаковская, Николай Исаков
Роли озвучивали • Павел Ярощик, Станислав Черсков, Маргарита Корш
Звукорежиссер • Павел Квентов
Постер • Ксения Просветова
Релиз подготовил • Gater


Скачать BoJack_Horseman_S04_WEBRip_720p_OMSKBIRD.torrent

просмотры: 3

Post Comment