Зарубежные фильмы Комедия

Пираты Карибского моря: Мертвецы не рассказывают сказки / Pirates of the Caribbean: Dead Men Tell No Tales (2017) BDRip AVC от Generalfilm | Лицензия


Название: Пираты Карибского моря: Мертвецы не рассказывают сказки
Оригинальное название: Pirates of the Caribbean: Dead Men Tell No Tales
Год выпуска: 2017
Жанр: Фэнтези, боевик, комедия, приключения
Выпущено: США, Walt Disney Pictures, Jerry Bruckheimer Films, Infinitum Nihil
Режиссер: Хоаким Роннинг, Эспен Сандберг
В ролях: Джонни Депп, Кира Найтли, Кая Скоделарио, Дэвид Уэнэм, Орландо Блум, Джеффри Раш, Брентон Туэйтс, Хавьер Бардем, Голшифте Фарахани, Стивен Грэм

О фильме: Капитан Джек Воробей перманентно насыщает себя алкоголем до уровня смерти мозга, обольщая доступных красоток не выходя из запоя. Между тем, его и других благородных пиратов хочет подвергнуть инквизиции полуразложившийся труп капитана Салазара и его частично сохранившаяся команда, для которых Джек много лет назад устроил групповой сеанс контролируемого суицида. И теперь всю пиратскую братию может спасти только трезубец Посейдона — легендарный артефакт, дающий своему держателю полный контроль над морскими просторами.

Качество: BDRip AVC
Формат; MKV
Видео: AVC, 1024×426 (2.40:1), 23.976 fps, 2 860 Kbps (0.273 bit/pixel)
Аудио: Русский (АС3, 6 ch, 448 Кбит/с)
Продолжительность: 02:09:07
Перевод: Дублированный [Лицензия]
Субтитры: Русские (forced,full)
Навигация по главам: есть
Релиз от

Скриншоты



ОтчетМедиаИнфо
Общее
Уникальный идентификатор : 174109673129492095284216764446485901490 (0x82FC4DA5A484B1BF98C6122F7D09F0B2)
Полное имя : E:Pirates 2017.BDRip-AVC.Rip.by.White Smoke.R.G.Generalfilm.mkv
Формат : Matroska
Размер файла : 2,99 Гбайт
Продолжительность : 2 ч. 9 м.
Общий поток : 3310 Кбит/сек
Название фильма : Pirates 2017.BDRip-AVC.Rip.by.White Smoke.R.G.Generalfilm.mkv
Дата кодирования : UTC 2017-09-13 16:00:41
Программа кодирования : mkvmerge v6.8.0 ('Theme for Great Cities') 64bit built on Mar 2 2014 21:34:26
Библиотека кодирования : libebml v1.3.0 + libmatroska v1.4.1

Видео
Идентификатор : 2
Формат : AVC
Формат/Информация : Advanced Video Codec
Профиль формата : [email protected]
Параметр CABAC формата : Да
Параметр ReFrames формата : 12 кадры
Идентификатор кодека : V_MPEG4/ISO/AVC
Продолжительность : 2 ч. 9 м.
Битрейт : 2860 Кбит/сек
Ширина : 1024 пикс.
Высота : 426 пикс.
Соотношение сторон : 2,40:1
Частота кадров : 23,976 кадр/сек
Цветовое пространство : YUV
Подвыборка цветности : 4:2:0
Битовая глубина : 8 бит
Тип развёртки : Прогрессивная
Бит/(Пиксели*Кадры) : 0.273
Размер потока : 2,52 Гбайт (84%)
Библиотека кодирования : x264 core 148 r2638 7599210
Настройки программы : cabac=1 / ref=12 / deblock=1:-1:-2 / analyse=0x3:0x113 / me=umh / subme=11 / psy=1 / psy_rd=1.00:0.14 / mixed_ref=1 / me_range=32 / chroma_me=1 / trellis=2 / 8x8dct=1 / cqm=0 / deadzone=21,11 / fast_pskip=0 / chroma_qp_offset=-5 / threads=6 / lookahead_threads=1 / sliced_threads=0 / nr=0 / decimate=0 / interlaced=0 / bluray_compat=0 / constrained_intra=0 / bframes=10 / b_pyramid=2 / b_adapt=2 / b_bias=10 / direct=1 / weightb=0 / open_gop=0 / weightp=2 / keyint=240 / keyint_min=23 / scenecut=40 / intra_refresh=0 / rc_lookahead=40 / rc=2pass / mbtree=1 / bitrate=2860 / ratetol=1.0 / qcomp=0.70 / qpmin=0 / qpmax=69 / qpstep=4 / cplxblur=20.0 / qblur=0.5 / vbv_maxrate=50000 / vbv_bufsize=65500 / nal_hrd=none / filler=0 / ip_ratio=1.40 / aq=1:1.00

Аудио
Идентификатор : 1
Формат : AC-3
Формат/Информация : Audio Coding 3
Расширение режима : CM (complete main)
Идентификатор кодека : A_AC3
Продолжительность : 2 ч. 9 м.
Вид битрейта : Постоянный
Битрейт : 448 Кбит/сек
Канал(ы) : 6 канала(ов)
Расположение каналов : Front: L C R, Side: L R, LFE
Частота : 48,0 КГц
Битовая глубина : 16 бит
Метод сжатия : С потерями
Размер потока : 414 Мбайт (14%)

Текст #1
Идентификатор : 3
Формат : UTF-8
Идентификатор кодека : S_TEXT/UTF8
Идентификатор кодека/Информация : UTF-8 Plain Text
Заголовок : Forced
Язык : Russian

Текст #2
Идентификатор : 4
Формат : UTF-8
Идентификатор кодека : S_TEXT/UTF8
Идентификатор кодека/Информация : UTF-8 Plain Text
Заголовок : Full
Язык : Russian

Меню
00:00:00.000 : en:00:00:00.000
00:05:49.516 : en:00:05:49.516
00:08:34.222 : en:00:08:34.222
00:13:40.820 : en:00:13:40.820
00:16:29.155 : en:00:16:29.155
00:22:33.852 : en:00:22:33.852
00:25:19.268 : en:00:25:19.268
00:28:06.101 : en:00:28:06.101
00:31:41.775 : en:00:31:41.775
00:33:44.814 : en:00:33:44.814
00:37:02.053 : en:00:37:02.053
00:42:27.712 : en:00:42:27.712
00:49:09.071 : en:00:49:09.071
00:54:00.279 : en:00:54:00.279
00:57:19.394 : en:00:57:19.394
01:00:38.718 : en:01:00:38.718
01:08:29.939 : en:01:08:29.939
01:11:57.021 : en:01:11:57.021
01:16:50.940 : en:01:16:50.940
01:19:27.471 : en:01:19:27.471
01:25:04.808 : en:01:25:04.808
01:27:42.174 : en:01:27:42.174
01:31:43.790 : en:01:31:43.790
01:38:22.814 : en:01:38:22.814
01:42:36.776 : en:01:42:36.776
01:47:23.562 : en:01:47:23.562
01:52:58.689 : en:01:52:58.689
01:59:09.934 : en:01:59:09.934


Скачать Pirates_2017.BDRip-AVC.Rip.by.White_Smoke.R.G.G.torrent

просмотры: 1

Post Comment