Зарубежные фильмы Исторический

Тит – правитель Рима / Titus (1999) HDRip от ImperiaFilm | P


Информация о фильме
Название: Тит – правитель Рима
Оригинальное название: Titus
Год выхода: 1999
Жанр: Драма, исторический
Режиссер: Джули Тэймор
В ролях: Энтони Хопкинс, Джессика Лэнг, Энгус МакФадьен, Джеймс Фрейн, Джеральдин МакЮэн, Алан Камминг, Джонатан Риз Майерс, Ошин Джонс, Дарио Д’Амброси, Раз Деган

О фильме:
Война не приносит побед — за самой громкой победой следом идет жестокое поражение. Победоносный генерал Тит Андронник возвращается в Рим с триумфом и требует казнить своих пленников, посягнувших на величие империи. Но коварная и прекрасная королева Готов Тамора остается жить и клянется отомстить Титу, вырезавшему ее народ.
В борьбе за власть хороши все средства — интриги оборачиваются насилием, массовыми убийствами и кровавой резней, в которой Тит клянется покарать отступников, среди которых его кровные сыновья… Экранизация трагедии Уильяма Шекспира Тит Андроник.

Страна: Италия, США, Великобритания
Студия: Clear Blue Sky Productions, Overseas FilmGroup, Urania Pictures S.r.l., NDF International, Titus Productions Ltd.
Продолжительность: 02:42:27
Перевод: Профессиональный (многоголосый, закадровый) — (Лицензия)

Файл
Кодек: XviD
Качество: HDRip
Видео: 688×288 (2.39:1), 23.976 fps, XviD build 73 ~900 kbps avg, 0.19 bit/pixel
Звук: 48 kHz, AC3 Dolby Digital, 3/2 (L,C,R,l,r) + LFE ch, ~384 kbps
Субтитры: Отсутствуют

Семпл

MI
General
Complete name : D:Изготовление рипаTit pravitel` Rima.(1999).HDRip by shkiper.avi
Format : AVI
Format/Info : Audio Video Interleave
File size : 1.47 GiB
Duration : 2 h 42 min
Overall bit rate : 1 294 kb/s
Writing application : VirtualDubMod 1.5.10.3 | www.virtualdub-fr.org || (build 2550/release)
Writing library : VirtualDubMod build 2550/release

Video
ID : 0
Format : MPEG-4 Visual
Format profile : Advanced [email protected]
Format settings, BVOP : 1
Format settings, QPel : No
Format settings, GMC : No warppoints
Format settings, Matrix : Custom
Codec ID : XVID
Codec ID/Hint : XviD
Duration : 2 h 42 min
Bit rate : 900 kb/s
Width : 688 pixels
Height : 288 pixels
Display aspect ratio : 2.40:1
Frame rate : 23.976 (24000/1001) FPS
Color space : YUV
Chroma subsampling : 4:2:0
Bit depth : 8 bits
Scan type : Progressive
Compression mode : Lossy
Bits/(Pixel*Frame) : 0.190
Stream size : 1.02 GiB (70%)
Writing library : XviD 73

Audio
ID : 1
Format : AC-3
Format/Info : Audio Coding 3
Mode extension : CM (complete main)
Format settings, Endianness : Big
Codec ID : 2000
Duration : 2 h 42 min
Bit rate mode : Constant
Bit rate : 384 kb/s
Channel(s) : 6 channels
Channel positions : Front: L C R, Side: L R, LFE
Sampling rate : 48.0 kHz
Frame rate : 31.250 FPS (1536 spf)
Bit depth : 16 bits
Compression mode : Lossy
Stream size : 446 MiB (30%)
Alignment : Split accross interleaves
Interleave, duration : 42 ms (1.00 video frame)
Interleave, preload duratio : 500 ms
Скриншоты

Релиз от:


Скачать Tit_pravitel_Rima.1999.HDRip_by_shkiper.avi.torrent

просмотры: 6

Post Comment