Детский Зарубежные фильмы

Астрал / Insidious (2010) BDRip 720p от KinoGadget | iPad | D

Год выпуска: 2010
Оригинальное название: Insidious
Страна: США
Жанр: ужасы, триллер
Возраст: 16+

Режиссер: Джеймс Ван

В ролях: Патрик Уилсон, Роуз Бирн, Ти Кигэн Симпкинс, Эндрю Эстор, Лин Шэй, Ли Уоннелл, Энгус Сэмпсон, Барбара Хёрши, Корбетт Так

Описание: Джош и Рене переезжают со своими детьми в новый дом, но не успевают толком распаковать вещи, как начинаются странные события. Необъяснимо перемещаются предметы, в детской звучат странные звуки… Но в настоящий ужас приходят родители, когда их десятилетний сын Далтон впадает в кому. Все усилия врачей в больнице помочь мальчику безуспешны.

Несколько месяцев спустя его возвращают домой, где за несчастным ребенком ухаживают мать и сиделка. Но загадочные явления в доме продолжаются. Отчаявшиеся родители готовы обратиться за помощью к кому угодно и вскоре выясняется, что Далтон в бессознательном состоянии связан с паранормальным миром…

Продолжительность: 01:42:22
Перевод: Дублированный
Оригинальная дорожка: нет

Качество видео: BDRip 720p Исходник: Blu-Ray (1080p) Формат: mp4
Видео кодек: MPEG-4 AVC Аудио кодек: AAC
Видео: 1280×536 (2.40:1) at 23.976 fps, AVC at 1 955 kbps avg, 0.119 bit/pixel
Аудио №1 Rus: 48.0 KHz, AAC, 2 ch, 128.0 Kbps
Субтитры: нет
Навигация по главам: есть
Размер: 1.49 GiB

Log x264
avs [info]: 1280x536p 1:1 @ 24000/1001 fps (cfr)
x264 [info]: using SAR=1/1
x264 [info]: using cpu capabilities: MMX2 SSE2Fast SSSE3 Cache64
x264 [info]: profile High, level 4.1
x264 [info]: frame I:1260 Avg QP:12.42 size: 80704
x264 [info]: frame P:29717 Avg QP:15.80 size: 23718
x264 [info]: frame B:116287 Avg QP:18.05 size: 5971
x264 [info]: consecutive B-frames: 2.1% 1.5% 5.4% 11.2% 15.0% 57.3% 7.5%
x264 [info]: mb I I16..4: 9.0% 69.4% 21.5%
x264 [info]: mb P I16..4: 2.0% 9.0% 1.5% P16..4: 41.5% 23.6% 12.6% 0.0% 0.0% skip: 9.8%
x264 [info]: mb B I16..4: 0.2% 0.5% 0.1% B16..8: 40.7% 6.8% 1.2% direct: 4.4% skip:46.1% L0:44.7% L1:47.9% BI: 7.4%
x264 [info]: 8×8 transform intra:71.2% inter:61.6%
x264 [info]: coded y,uvDC,uvAC intra: 64.6% 70.3% 45.3% inter: 15.4% 20.1% 2.5%
x264 [info]: i16 v,h,dc,p: 47% 11% 7% 36%
x264 [info]: i8 v,h,dc,ddl,ddr,vr,hd,vl,hu: 25% 12% 24% 5% 7% 8% 7% 7% 6%
x264 [info]: i4 v,h,dc,ddl,ddr,vr,hd,vl,hu: 31% 14% 17% 5% 8% 8% 7% 6% 4%
x264 [info]: i8c dc,h,v,p: 58% 15% 21% 6%
x264 [info]: Weighted P-Frames: Y:4.9% UV:2.8%
x264 [info]: ref P L0: 50.1% 9.0% 17.1% 7.7% 5.6% 4.4% 3.6% 2.4% 0.2% 0.0%
x264 [info]: ref B L0: 77.9% 10.7% 5.4% 2.5% 2.1% 1.1% 0.4%
x264 [info]: ref B L1: 94.1% 5.9%
x264 [info]: kb/s:1954.80
encoded 147264 frames, 2.85 fps, 1954.80 kb/s

MI
General
Complete name : …Astral_2010_KinoGadget.mp4
Format : MPEG-4
Format profile : Base Media
Codec ID : isom (isom)
File size : 1.49 GiB
Duration : 1 h 42 min
Overall bit rate mode : Variable
Overall bit rate : 2 091 kb/s
Movie name : Астрал | KinoGadget
Performer : Джеймс Ван
Director : Джеймс Ван
Actor : Патрик Уилсон / Роуз Бирн / Ти Кигэн Симпкинс / Эндрю Эстор / Лин Шэй / Ли Уоннелл / Энгус Сэмпсон / Барбара Хёрши / Корбетт Так
Screenplay by : Ли Уоннелл
Producer : Джейсон Блум / Орен Пели / Стивен Шнайдер
Genre : Horror, Thriller
ContentType : Short Film
Recorded date : 2010
Encoded date : UTC 2017-04-29 05:29:32
Tagged date : UTC 2017-04-29 05:54:15
Cover : Yes
ContentRating : mpaa|PG-13|300|
LongDeion : Джош и Рене переезжают со своими детьми в новый дом, но не успевают толком распаковать вещи, как начинаются странные события. Необъяснимо перемещаются предметы, в детской звучат странные звуки… Но в настоящий ужас приходят родители, когда их десятилетний сын Далтон впадает в кому. Все усилия врачей в больнице помочь мальчику безуспешны.
HDVideo : Yes

Video
ID : 1
Format : AVC
Format/Info : Advanced Video Codec
Format profile : [email protected]
Format settings, CABAC : Yes
Format settings, ReFrames : 8 frames
Codec ID : avc1
Codec ID/Info : Advanced Video Coding
Duration : 1 h 42 min
Bit rate : 1 955 kb/s
Maximum bit rate : 12.2 Mb/s
Width : 1 280 pixels
Height : 536 pixels
Display aspect ratio : 2.40:1
Frame rate mode : Constant
Frame rate : 23.976 (24000/1001) FPS
Color space : YUV
Chroma subsampling : 4:2:0
Bit depth : 8 bits
Scan type : Progressive
Bits/(Pixel*Frame) : 0.119
Stream size : 1.40 GiB (94%)
Writing library : x264 core 148 r2744 b97ae06
Encoding settings : cabac=1 / ref=8 / deblock=1:-1:-1 / analyse=0x3:0x113 / me=umh / subme=7 / psy=1 / psy_rd=1.00:0.00 / mixed_ref=1 / me_range=32 / chroma_me=1 / trellis=2 / 8x8dct=1 / cqm=0 / deadzone=21,11 / fast_pskip=0 / chroma_qp_offset=-2 / threads=3 / lookahead_threads=1 / sliced_threads=0 / nr=0 / decimate=1 / interlaced=0 / bluray_compat=0 / constrained_intra=0 / bframes=6 / b_pyramid=2 / b_adapt=2 / b_bias=0 / direct=1 / weightb=1 / open_gop=0 / weightp=2 / keyint=250 / keyint_min=25 / scenecut=40 / intra_refresh=0 / rc_lookahead=60 / rc=crf / mbtree=1 / crf=17.0 / qcomp=0.60 / qpmin=0 / qpmax=69 / qpstep=4 / vbv_maxrate=62500 / vbv_bufsize=78125 / crf_max=0.0 / nal_hrd=none / filler=0 / ip_ratio=1.40 / aq=1:1.00
Encoded date : UTC 2017-04-28 22:26:56
Tagged date : UTC 2017-04-29 05:30:09

Audio
ID : 2
Format : AAC
Format/Info : Advanced Audio Codec
Format profile : LC
Codec ID : 40
Duration : 1 h 42 min
Bit rate mode : Variable
Bit rate : 128 kb/s
Maximum bit rate : 134 kb/s
Channel(s) : 2 channels
Channel positions : Front: L R
Sampling rate : 48.0 kHz
Frame rate : 46.875 FPS (1024 spf)
Compression mode : Lossy
Stream size : 93.7 MiB (6%)
Language : Russian
Encoded date : UTC 2017-04-28 22:31:51
Tagged date : UTC 2017-04-29 05:30:09

Menu

Скриншоты

Данный рип предназначен для просмотра на мобильных гаджетах с поддержкой формата mp4


Скачать Astral_2010_KinoGadget.mp4.torrent

просмотры: 5

Post Comment