Вестерн Зарубежные фильмы

Пуля для генерала / Quién sabe? / A Bullet for the General (1966) BDRip 720p | D, P, P1

Информация о фильме
Название: Пуля для генерала
Оригинальное название: Quién sabe? / A Bullet for the General
Год выхода: 1966
Жанр: вестерн
Режиссер: Дамиано Дамиани
В ролях: Джан Мария Волонте, Клаус Кински, Мартин Бесвик, Лу Кастель, Хайме Фернандес, Андреа Кекки, Спартако Конверси, Хоакин Парра, Альдо Самбрель, Хосе Мануэль Мартин

О фильме:
Мексика, начало XX века. Идет гражданская война всех против всех. Одни борются за свободу своей страны, другие — защищают свою власть, третьи — просто занимаются разбоем.

Молодой элегантный американец приезжает в залитую кровью страну, идеально подходящую для его целей: быстро разбогатеть. Он внедряется в одну из банд, промышляющую торговлей оружием.

Он завоевывает доверие и восхищение прошедших огонь и воду повстанцев. Но только зачем он повсюду носит с собой как талисман винтовочный патрон с отлитой из золота пулей?

Страна: Италия
Студия: M. C. M.
Продолжительность: 01:57:48
Перевод: Профессиональный (дублированный) со вставками многоголосого перевода от Светла + Профессиональный (дублированный) со вставками итальянского дубляжа и субтитрами на непереведенные места + Профессиональный (многоголосый, закадровый) Cinema Prestige + Профессиональный (многоголосый, закадровый) DVD Magic + Профессиональный (многоголосый, закадровый) Светла (VHS) + Профессиональный (многоголосый, закадровый) СПб 5 канал + Профессиональный (одноголосый, закадровый) РТР (текст читает С.Вещев)

Файл
Качество: BDRip 720p
Формат: Matroska
Видео: 1280×546 at 23.976 fps, [email protected], ~4445 kbps avg
Aудио#1: Russian: 48 kHz, AC3, 2/0 (L,R) ch, ~192 kbps avg |Дубляж, со вставками многоголосого перевода от Светла|
Aудио#2: Russian: 48 kHz, AC3, 2/0 (L,R) ch, ~192 kbps avg |Дубляж, со вставками итальянского дубляжа и субтитрами на непереведенные места|
Aудио#3: Russian: 48 kHz, AC3, 2/0 (L,R) ch, ~192 kbps avg |Многоголосый закадровый, Cinema Prestige|
Aудио#4: Russian: 48 kHz, AC3, 2/0 (L,R) ch, ~192 kbps avg |Многоголосый закадровый, DVD Magic|
Aудио#5: Russian: 48 kHz, AC3, 2/0 (L,R) ch, ~192 kbps avg |Многоголосый закадровый, Светла (VHS)|
Aудио#6: Russian: 48 kHz, AC3, 2/0 (L,R) ch, ~192 kbps avg |Многоголосый закадровый, СПб 5 канал|
Aудио#7: Russian: 48 kHz, AC3, 2/0 (L,R) ch, ~192 kbps avg |Одноголосый закадровый, РТР (текст читает С.Вещев)|
Аудио#8: Italian: 48 kHz, AC3, 2/0 (L,R) ch, ~192 kbps avg
Субтитры: Russian, English

***Сохранены оригинальные главы как на Blu-ray.
***Релиз — msltel.

Знаете ли вы, что…

  • Перевод оригинального названия — «Кто знает?».
  • При том, что антураж картины всецело соответствует жанру вестерна, Дамиано Дамиани отказывался от такого определения, поскольку действие разворачивалось не в протестантской Америке. Также он считал этот фильм прежде всего политическим.
  • Райнер Вернер Фассбиндер посвятил свой первый художественный фильм обоим главным героям «Пули для генерала».
  • В советском прокате дублированный, но сильно урезанный вариант фильма вышел под названием «Золотая пуля». В конце 80-х годов по советскому телевидению была показана уже более полная версия картины под названием «Кто знает?», с закадровым вариантом озвучания.
  • Версия, шедшая в советских кинотеатрах, на пятнадцать минут короче оригинала.
  • MediaInfo
    Общее
    Уникальный идентификатор : 201139184522234509908024163328870788237 (0x9751FF72D78E67B1B0F07FCEFEBF2C8D)
    Полное имя : Пуля для генерала.1966.BDRip.720p by msltel.mkv
    Формат : Matroska
    Версия формата : Version 4 / Version 2
    Размер файла : 5,02 Гбайт
    Продолжительность : 1 ч. 57 м.
    Общий поток : 6103 Кбит/сек
    Название фильма : Rip by msltel
    Дата кодирования : UTC 2017-05-28 08:01:17
    Программа кодирования : mkvmerge v8.2.0 ('World of Adventure') 64bit
    Библиотека кодирования : libebml v1.3.1 + libmatroska v1.4.2

    Видео
    Идентификатор : 1
    Формат : AVC
    Формат/Информация : Advanced Video Codec
    Профиль формата : [email protected]
    Параметр CABAC формата : Да
    Параметр ReFrames формата : 9 кадров
    Идентификатор кодека : V_MPEG4/ISO/AVC
    Продолжительность : 1 ч. 57 м.
    Битрейт : 4445 Кбит/сек
    Ширина : 1280 пикселей
    Высота : 546 пикселей
    Соотношение сторон : 2,35:1
    Режим частоты кадров : Постоянный
    Частота кадров : 23,976 кадра/сек
    Цветовое пространство : YUV
    Субдискретизация насыщенности : 4:2:0
    Битовая глубина : 8 бит
    Тип развёртки : Прогрессивная
    Бит/(Пиксели*Кадры) : 0.265
    Размер потока : 3,66 Гбайт (73%)
    Библиотека кодирования : x264 core 146 r2538 121396c
    Настройки программы : cabac=1 / ref=9 / deblock=1:-3:-2 / analyse=0x3:0x113 / me=umh / subme=11 / psy=1 / psy_rd=1.00:0.15 / mixed_ref=1 / me_range=32 / chroma_me=1 / trellis=2 / 8x8dct=1 / cqm=0 / deadzone=21,11 / fast_pskip=0 / chroma_qp_offset=-3 / threads=6 / lookahead_threads=1 / sliced_threads=0 / nr=0 / decimate=1 / interlaced=0 / bluray_compat=0 / constrained_intra=0 / bframes=6 / b_pyramid=2 / b_adapt=2 / b_bias=0 / direct=1 / weightb=1 / open_gop=0 / weightp=2 / keyint=230 / keyint_min=23 / scenecut=40 / intra_refresh=0 / rc_lookahead=40 / rc=crf / mbtree=0 / crf=19.5 / qcomp=0.60 / qpmin=0 / qpmax=69 / qpstep=4 / vbv_maxrate=62500 / vbv_bufsize=78125 / crf_max=0.0 / nal_hrd=none / filler=0 / ip_ratio=1.40 / pb_ratio=1.30 / aq=1:1.00
    Язык : English
    Default : Да
    Forced : Нет

    Аудио #1
    Идентификатор : 2
    Формат : AC-3
    Формат/Информация : Audio Coding 3
    Расширение режима : CM (complete main)
    Параметр Endianness формата : Big
    Идентификатор кодека : A_AC3
    Продолжительность : 1 ч. 57 м.
    Вид битрейта : Постоянный
    Битрейт : 192 Кбит/сек
    Каналы : 2 канала
    Расположение каналов : Front: L R
    Частота : 48,0 КГц
    Битовая глубина : 16 бит
    Метод сжатия : С потерями
    Размер потока : 162 Мбайт (3%)
    Заголовок : DUB (со вставками многоголосого перевода от ООО Светла)
    Язык : Russian
    Default : Да
    Forced : Нет

    Аудио #2
    Идентификатор : 3
    Формат : AC-3
    Формат/Информация : Audio Coding 3
    Расширение режима : CM (complete main)
    Параметр Endianness формата : Big
    Идентификатор кодека : A_AC3
    Продолжительность : 1 ч. 57 м.
    Вид битрейта : Постоянный
    Битрейт : 192 Кбит/сек
    Каналы : 2 канала
    Расположение каналов : Front: L R
    Частота : 48,0 КГц
    Битовая глубина : 16 бит
    Метод сжатия : С потерями
    Размер потока : 162 Мбайт (3%)
    Заголовок : DUB (со вставками итальянского дубляжа и субтитрами на непереведенные места)
    Язык : Russian
    Default : Нет
    Forced : Нет

    Аудио #3
    Идентификатор : 4
    Формат : AC-3
    Формат/Информация : Audio Coding 3
    Расширение режима : CM (complete main)
    Параметр Endianness формата : Big
    Идентификатор кодека : A_AC3
    Продолжительность : 1 ч. 57 м.
    Вид битрейта : Постоянный
    Битрейт : 192 Кбит/сек
    Каналы : 2 канала
    Расположение каналов : Front: L R
    Частота : 48,0 КГц
    Битовая глубина : 16 бит
    Метод сжатия : С потерями
    Размер потока : 162 Мбайт (3%)
    Заголовок : MVO (Cinema Prestige, 2012)
    Язык : Russian
    Default : Нет
    Forced : Нет

    Аудио #4
    Идентификатор : 5
    Формат : AC-3
    Формат/Информация : Audio Coding 3
    Расширение режима : CM (complete main)
    Параметр Endianness формата : Big
    Идентификатор кодека : A_AC3
    Продолжительность : 1 ч. 57 м.
    Вид битрейта : Постоянный
    Битрейт : 192 Кбит/сек
    Каналы : 2 канала
    Расположение каналов : Front: L R
    Частота : 48,0 КГц
    Битовая глубина : 16 бит
    Метод сжатия : С потерями
    Размер потока : 162 Мбайт (3%)
    Заголовок : MVO (DVD Magic, 2003)
    Язык : Russian
    Default : Нет
    Forced : Нет

    Аудио #5
    Идентификатор : 6
    Формат : AC-3
    Формат/Информация : Audio Coding 3
    Расширение режима : CM (complete main)
    Параметр Endianness формата : Big
    Идентификатор кодека : A_AC3
    Продолжительность : 1 ч. 57 м.
    Вид битрейта : Постоянный
    Битрейт : 192 Кбит/сек
    Каналы : 2 канала
    Расположение каналов : Front: L R
    Частота : 48,0 КГц
    Битовая глубина : 16 бит
    Метод сжатия : С потерями
    Размер потока : 162 Мбайт (3%)
    Заголовок : MVO (Светла, VHS, 2003)
    Язык : Russian
    Default : Нет
    Forced : Нет

    Аудио #6
    Идентификатор : 7
    Формат : AC-3
    Формат/Информация : Audio Coding 3
    Расширение режима : CM (complete main)
    Параметр Endianness формата : Big
    Идентификатор кодека : A_AC3
    Продолжительность : 1 ч. 57 м.
    Вид битрейта : Постоянный
    Битрейт : 192 Кбит/сек
    Каналы : 2 канала
    Расположение каналов : Front: L R
    Частота : 48,0 КГц
    Битовая глубина : 16 бит
    Метод сжатия : С потерями
    Размер потока : 162 Мбайт (3%)
    Заголовок : MVO (СПб, 5 канал, 2006)
    Язык : Russian
    Default : Нет
    Forced : Нет

    Аудио #7
    Идентификатор : 8
    Формат : AC-3
    Формат/Информация : Audio Coding 3
    Расширение режима : CM (complete main)
    Параметр Endianness формата : Big
    Идентификатор кодека : A_AC3
    Продолжительность : 1 ч. 57 м.
    Вид битрейта : Постоянный
    Битрейт : 192 Кбит/сек
    Каналы : 2 канала
    Расположение каналов : Front: L R
    Частота : 48,0 КГц
    Битовая глубина : 16 бит
    Метод сжатия : С потерями
    Размер потока : 162 Мбайт (3%)
    Заголовок : VO (РТР, текст читает Сергей Вещев, студия Кадр, 1995)
    Язык : Russian
    Default : Нет
    Forced : Нет

    Аудио #8
    Идентификатор : 9
    Формат : AC-3
    Формат/Информация : Audio Coding 3
    Расширение режима : CM (complete main)
    Параметр Endianness формата : Big
    Идентификатор кодека : A_AC3
    Продолжительность : 1 ч. 57 м.
    Вид битрейта : Постоянный
    Битрейт : 192 Кбит/сек
    Каналы : 2 канала
    Расположение каналов : Front: L R
    Частота : 48,0 КГц
    Битовая глубина : 16 бит
    Метод сжатия : С потерями
    Размер потока : 162 Мбайт (3%)
    Заголовок : original
    Язык : Italian
    Default : Нет
    Forced : Нет

    Текст #1
    Идентификатор : 10
    Формат : UTF-8
    Идентификатор кодека : S_TEXT/UTF8
    Идентификатор кодека/Информация : UTF-8 Plain Text
    Заголовок : русские (Cinema Prestige)
    Язык : Russian
    Default : Нет
    Forced : Нет

    Текст #2
    Идентификатор : 11
    Формат : UTF-8
    Идентификатор кодека : S_TEXT/UTF8
    Идентификатор кодека/Информация : UTF-8 Plain Text
    Заголовок : русские
    Язык : Russian
    Default : Нет
    Forced : Нет

    Текст #3
    Идентификатор : 12
    Формат : UTF-8
    Идентификатор кодека : S_TEXT/UTF8
    Идентификатор кодека/Информация : UTF-8 Plain Text
    Заголовок : английские
    Язык : English
    Default : Нет
    Forced : Нет

    Меню
    00:00:00.000 : :Chapter 01
    00:04:08.206 : :Chapter 02
    00:11:59.593 : :Chapter 03
    00:19:42.055 : :Chapter 04
    00:27:13.465 : :Chapter 05
    00:31:06.781 : :Chapter 06
    00:39:02.465 : :Chapter 07
    00:42:27.169 : :Chapter 08
    00:52:15.298 : :Chapter 09
    00:57:31.156 : :Chapter 10
    01:02:14.063 : :Chapter 11
    01:10:47.243 : :Chapter 12
    01:17:53.043 : :Chapter 13
    01:26:03.741 : :Chapter 14
    01:32:11.192 : :Chapter 15
    01:38:09.758 : :Chapter 16
    01:42:47.536 : :Chapter 17
    01:45:46.381 : :Chapter 18
    01:51:12.791 : :Chapter 19
    01:57:06.310 : :Chapter 20
    01:57:48.061 : :Chapter 21
    Скриншоты


    Скачать A.Bullet.for.the.General.720p.mkv.torrent

    просмотры: 1

    Post Comment