Мультипликация

Пингвиненок Пороро / Pororo The Little Penguin [S05] (2007) WEB-DLRip 720p от ExKinoRay | D

Информация о фильме
Название: Пингвиненок Пороро
Оригинальное название: Pororo The Little Penguin
Год выхода: 2007
Сезон: 5
Страна: Южная Корея, Iconix Entertainment
Жанр: Мультсериал, детский, семейный, приключения, музыкальный
Продолжительность: 26 x ~ 00:11:00
Перевод: Профессиональный дублированный

Режиссер: Ким Хыым Жин

О фильме:
Где-то далеко-далеко, в месте, о котором люди даже не слышали, есть лес, весь покрытый снегом и льдом. В самой глубине этого леса прячется деревушка, в которой живут маленькие зверята. Солнце там светит теплее всего, а холодный ветер совсем не кусает за нос. Обитатели деревни — очень любознательный и шаловливый пингвиненок Пороро, добродушный белый медведь Поби, хитрый и любопытный рыжий лисенок Эдди, застенчивая и скромная малышка-бобренок Лупи и Кронг, маленький товарищ Пороро. У всех у них очень разные характеры и интересы. Иногда зверята ссорятся, но обычно им очень весело проводить время вместе. А главное — все они дорожат своей дружбой и всегда рады помочь друг другу.

5 сезон
s5e00. Заставка. 5s
s5e01. Мы хорошие друзья
s5e02. Желание Кронга
s5e03. Просто быть честным
s5e04. Мини-концерт для Гарри
s5e05. Загадки Эдди
s5e06. Настоящая отвага
s5e07. Ты нужен нам, Эдди
s5e08. Волшебный альбом для рисования
s5e09. Настоящие друзья Роди
s5e10. Рюкзак Эдди на все случаи жизни
s5e11. Быть медленным неплохо
s5e12. Кронг заскучал
s5e13. Поправляйся скорее, Лупи
s5e14. Давайте сделаем новые санки
s5e15. Кронг и Гарри пропали
s5e16. Давайте пойдем к Тонгтонгу в гости
s5e17. Играть дома весело
s5e18. Мы хотим отправиться в космос
s5e19. Особый подарок Пороро
s5e20. Давайте поставим пьесу
s5e21. Испорченные сны
s5e22. День вместе с Часами
s5e23. Дом Гарри пропал
s5e24. Подарки Петти
s5e25. Гарри и вода из волшебного источника
s5e26. Общее фото

Доп. информация:
Сэмпл


Файл
Формат: MP4
Качество: WEB-DLRip 720p
Видео: MPEG4-AVC, 1280×720 (16:9), 25 fps, ~1 483 kbps avg, 0.064bit/pixel
Звук: 44,1 kHz, AАC-LC, 2.0, ~192 kbpsp

MI

s5e14. Давайте сделаем новые санки. HD-merci-.mp4
Format : MPEG-4
Format profile : Base Media
Codec ID : isom (isom/mp42)
File size : 132 MiB
Duration : 10 min 59 s
Overall bit rate mode : Variable
Overall bit rate : 1 681 kb/s
Encoded date : UTC 2017-06-10 12:37:31
Tagged date : UTC 2017-06-10 12:37:31
gsst : 0
gstd : 390048
gssd : B4A7D6E09HH1403773078236159
gshh : r9—sn-n8v7lnez.googlevideo.com

Video
ID : 1
Format : AVC
Format/Info : Advanced Video Codec
Format profile : [email protected]
Format settings, CABAC : Yes
Format settings, ReFrames : 2 frames
Codec ID : avc1
Codec ID/Info : Advanced Video Coding
Duration : 10 min 59 s
Source duration : 10 min 59 s
Bit rate : 1 483 kb/s
Width : 1 280 pixels
Height : 720 pixels
Display aspect ratio : 16:9
Frame rate mode : Constant
Frame rate : 25.000 FPS
Color space : YUV
Chroma subsampling : 4:2:0
Bit depth : 8 bits
Scan type : Progressive
Bits/(Pixel*Frame) : 0.064
Stream size : 117 MiB (88%)
Source stream size : 117 MiB (88%)
Language : English
Encoded date : UTC 2017-06-10 12:37:31
Tagged date : UTC 2017-06-10 12:37:31
Color range : Limited
Color primaries : BT.709
Transfer characteristics : BT.709
Matrix coefficients : BT.709
mdhd_Duration : 659660

Audio
ID : 2
Format : AAC
Format/Info : Advanced Audio Codec
Format profile : LC
Codec ID : 40
Duration : 10 min 59 s
Bit rate mode : Variable
Bit rate : 192 kb/s
Channel(s) : 2 channels
Channel positions : Front: L R
Sampling rate : 44.1 kHz
Frame rate : 43.066 FPS (1024 spf)
Compression mode : Lossy
Stream size : 15.1 MiB (11%)
Language : English
Encoded date : UTC 2017-06-10 12:37:31
Tagged date : UTC 2017-06-10 12:37:31
mdhd_Duration : 659723

Скриншоты

Релиз от:
Автор релиза: /


Скачать Pororo._5s._W-720p.merci-.torrent

просмотры: 5

Post Comment