Мультипликация

Пингвиненок Пороро / Pororo The Little Penguin [S01] (2007) WEB-DLRip 720p от ExKinoRay | D

Информация о фильме
Название: Пингвиненок Пороро
Оригинальное название: Pororo The Little Penguin
Год выхода: 2007
Сезон: 1
Страна: Южная Корея, Iconix Entertainment
Жанр: Мультсериал, детский, семейный, приключения, музыкальный
Продолжительность: 52 x ~ 00:05:00
Перевод: Профессиональный дублированный

Режиссер: Ким Хыым Жин

О фильме:
Добрый музыкальный мультсериал расскажет маленьким зрителям о жизни в заметённой снегом деревушке, которая находится на крошечном островке, затерявшемся где-то на краю земли. Там живут разные зверюшки: добрый полярный медведь Поби, не в меру любопытный лисёнок Эдди, мудрый, но очень стеснительный бобёр Лупи, динозаврик Кронг и главный герой мультсериала — пингвинёнок Пороро. Большую часть времени друзья проводят вместе. Они забавляются, шутят и играют друг с другом, а если попадают в затруднительные ситуации, то всегда готовы прийти на помощь и выручить попавшего в беду приятеля.

1 сезон
s1e00. Заставка. 1s
s1e01. Мы друзья!
s1e02. Всё в порядке!
s1e03. Холодная рыбалка
s1e04. Смотри веселее
s1e05. Что с моим лицом
s1e06. Апчхи, я простудился!
s1e07. Хочу летать!
s1e08. Кто трогал моего снеговика?
s1e09. В поисках сокровищ!
s1e10. Кронг — озорник!
s1e11. Давайте играть вместе!
s1e12. Хочу луну
s1e13. Тайна Эдди
s1e14. Волшебная флейта
s1e15. Снежная картина
s1e16. Поиграем?
s1e17. Рождество Кронга
s1e18. Лупи, у тебя получится!
s1e19. Эдди и телескоп
s1e20. Головоломка
s1e21. Воздушный змей
s1e22. Спасти Лупи!
s1e23. Путешествие в поезде
s1e24. Будь осторожен!
s1e25. Пороро и одуванчик
s1e26. Лекарство от икоты
s1e27. Пороро знакомится с китом
s1e28. Игра в магниты
s1e29. Будем танцевать!
s1e30. Живот болит
s1e31. Эдди — изобретатель
s1e32. Скажи правду
s1e33. Эдди летит на Луну
s1e34. Коробка конфет
s1e35. Странная машина
s1e36. Готовим попкорн
s1e37. Пороро и призраки
s1e38. Сюрприз для Пороро
s1e39. Я хочу спать!
s1e40. Коробка с секретом
s1e41. Я — суперпингвин!
s1e42. У Поби бессонница
s1e43. Прости, Кронг!
s1e44. Новый друг Лупи
s1e45. Пороро заблудился
s1e46. Лупи — предсказательница
s1e47. Воздушный шар Эдди
s1e48. День в деревне Пороро
s1e49. Волшебная лампа
s1e50. Маленькие повара
s1e51. Подарок Лупи
s1e52. Волшебная банка
s1e53. Титры. 1s

Доп. информация:
Сэмпл


Файл
Формат: MP4
Качество: WEB-DLRip 720p
Видео: MPEG4-AVC, 960×720 (4:3), 25 fps, ~1 476 kbps avg, 0.085bit/pixel
Звук: 44,1 kHz, AАC-LC, 2.0, ~192 kbpsp

MI

s1e10. Кронг — озорник! HD-merci-.mp4
Format : MPEG-4
Format profile : Base Media
Codec ID : isom (isom/mp42)
File size : 60.0 MiB
Duration : 5 min 0 s
Overall bit rate mode : Variable
Overall bit rate : 1 674 kb/s
Encoded date : UTC 2017-06-09 01:49:49
Tagged date : UTC 2017-06-09 01:49:49
gsst : 0
gstd : 390048
gssd : B4A7D6E09HH1403773078236159
gshh : r9—sn-n8v7lnez.googlevideo.com

Video
ID : 1
Format : AVC
Format/Info : Advanced Video Codec
Format profile : [email protected]
Format settings, CABAC : Yes
Format settings, ReFrames : 2 frames
Codec ID : avc1
Codec ID/Info : Advanced Video Coding
Duration : 5 min 0 s
Source duration : 5 min 0 s
Bit rate : 1 476 kb/s
Width : 960 pixels
Height : 720 pixels
Display aspect ratio : 4:3
Frame rate mode : Constant
Frame rate : 25.000 FPS
Color space : YUV
Chroma subsampling : 4:2:0
Bit depth : 8 bits
Scan type : Progressive
Bits/(Pixel*Frame) : 0.085
Stream size : 52.9 MiB (88%)
Source stream size : 52.9 MiB (88%)
Language : English
Encoded date : UTC 2017-06-09 01:49:49
Tagged date : UTC 2017-06-09 01:49:49
Color range : Limited
Color primaries : BT.709
Transfer characteristics : BT.709
Matrix coefficients : BT.709
mdhd_Duration : 300720

Audio
ID : 2
Format : AAC
Format/Info : Advanced Audio Codec
Format profile : LC
Codec ID : 40
Duration : 5 min 0 s
Duration_FirstFrame : -8 ms
Bit rate mode : Variable
Bit rate : 192 kb/s
Channel(s) : 2 channels
Channel positions : Front: L R
Sampling rate : 48.0 kHz
Frame rate : 46.875 FPS (1024 spf)
Compression mode : Lossy
Stream size : 6.88 MiB (11%)
Language : English
Encoded date : UTC 2017-06-09 01:49:49
Tagged date : UTC 2017-06-09 01:49:49
mdhd_Duration : 300771

Скриншоты

Релиз от:
Автор релиза: /


Скачать Pororo._1s._W-720p.merci-.torrent

просмотры: 2

Post Comment