Детектив Зарубежные фильмы

Лекарство от здоровья / A Cure for Wellness (2017) BDRip 1080p от New-Team & qqss44 | Лицензия




Мы "В КОНТАКТЕ"



Информация о фильме
Название: Лекарство от здоровья
Оригинальное название: A Cure for Wellness
Год выхода: 2017
Жанр: Триллер, детектив
Режиссер: Гор Вербински
В ролях: Дэйн ДеХаан, Джейсон Айзекс, Миа Гот, Иво Нанди, Адриан Шиллер, Селия Имри, Гарри Гронер, Томас Норстрем, Ашок Манданна, Магнус Креппер

О фильме:
Молодой амбициозный сотрудник отправляется в затерянный в швейцарских Альпах оздоровительный центр, чтобы вернуть оттуда руководителя своей компании. Но по прибытии он понимает, что чудодейственные процедуры спа-салона вовсе не те, чем кажутся. В то время как парень начинает распутывать страшные тайны этого места, его здравый ум проходит настоящую проверку на прочность. Похоже, теперь он страдает той же странной болезнью, по причине которой здесь остаются другие гости центра, желающие получить свою дозу лекарства.

Страна: Германия, США
Студия: Blind Wink Productions, New Regency Productions
Продолжительность: 02:26:33
Перевод: Дублированный | BD EUR

Файл
Формат: MKV, BDRip 1080p
Видео: MPEG-4 AVC, 9099 Кбит/с, 1920×1080
Aудио#1: [RUS] AC3 | 48 KHz | 5.1 (Front: L С R Side: L R) + LFE | ~640 kbps
Субтитры: русские (форсированные и полные)
Релиз от:

Скриншоты

МИ

Общее
Уникальный идентификатор : 200991433895600592856036853587905970895 (0x97358AC7C0BA4492A4426BBBD03582CF)
Полное имя : X:�0000A.Cure.For.Wellness.(2016).BDRip.1080p.(qqss44).mkv
Формат : Matroska
Версия формата : Version 2
Размер файла : 9,96 Гбайт
Продолжительность : 2 ч. 26 м.
Общий поток : 9733 Кбит/сек
Название фильма : A.Cure.For.Wellness.(2016).BDRip.1080p.(qqss44)
Дата кодирования : UTC 2017-06-09 11:00:41
Программа кодирования : mkvmerge v5.8.0 ('No Sleep / Pillow') built on Sep 2 2012 15:37:04
Библиотека кодирования : libebml v1.2.3 + libmatroska v1.3.0

Видео
Идентификатор : 1
Формат : AVC
Формат/Информация : Advanced Video Codec
Профиль формата : [email protected]
Параметр CABAC формата : Да
Параметр ReFrames формата : 4 кадра
Идентификатор кодека : V_MPEG4/ISO/AVC
Продолжительность : 2 ч. 26 м.
Битрейт : 9099 Кбит/сек
Ширина : 1920 пикселей
Высота : 1080 пикселей
Соотношение сторон : 16:9
Режим частоты кадров : Постоянный
Частота кадров : 23,976 (24000/1001) кадра/сек
Цветовое пространство : YUV
Субдискретизация насыщенности : 4:2:0
Битовая глубина : 8 бит
Тип развёртки : Прогрессивная
Бит/(Пиксели*Кадры) : 0.183
Размер потока : 9,11 Гбайт (91%)
Библиотека кодирования : x264 core 148 r2744kMod b97ae06
Настройки программы : cabac=1 / ref=4 / deblock=1:-3:-3 / analyse=0x3:0x113 / me=umh / subme=11 / psy=1 / fade_compensate=0.00 / psy_rd=1.00:0.00 / mixed_ref=1 / me_range=32 / chroma_me=1 / trellis=2 / 8x8dct=1 / cqm=0 / deadzone=21,11 / fast_pskip=0 / chroma_qp_offset=-2 / threads=12 / lookahead_threads=2 / sliced_threads=0 / nr=0 / decimate=0 / interlaced=0 / bluray_compat=0 / constrained_intra=0 / bframes=8 / b_pyramid=2 / b_adapt=2 / b_bias=0 / direct=3 / weightb=1 / open_gop=0 / weightp=2 / keyint=240 / keyint_min=23 / scenecut=40 / intra_refresh=0 / rc=2pass / mbtree=0 / bitrate=9099 / ratetol=1.0 / qcomp=0.69 / qpmin=0 / qpmax=69 / qpstep=4 / cplxblur=20.0 / qblur=0.5 / ip_ratio=1.40 / pb_ratio=1.30 / aq=3:0.80
Язык : English
Default : Да
Forced : Нет

Аудио
Идентификатор : 2
Формат : AC-3
Формат/Информация : Audio Coding 3
Расширение режима : CM (complete main)
Параметр Endianness формата : Big
Идентификатор кодека : A_AC3
Продолжительность : 2 ч. 26 м.
Вид битрейта : Постоянный
Битрейт : 640 Кбит/сек
Каналы : 6 каналов
Расположение каналов : Front: L C R, Side: L R, LFE
Частота : 48,0 КГц
Частота кадров : 31,250 кадров/сек (1536 spf)
Метод сжатия : С потерями
Размер потока : 671 Мбайт (7%)
Язык : Russian
Default : Да
Forced : Нет

Текст #1
Идентификатор : 3
Формат : UTF-8
Идентификатор кодека : S_TEXT/UTF8
Идентификатор кодека/Информация : UTF-8 Plain Text
Заголовок : FORCED
Язык : Russian
Default : Да
Forced : Нет

Текст #2
Идентификатор : 4
Формат : UTF-8
Идентификатор кодека : S_TEXT/UTF8
Идентификатор кодека/Информация : UTF-8 Plain Text
Заголовок : FULL
Язык : Russian
Default : Нет
Forced : Нет

Меню
00:00:00.000 : en: Chapter 1
00:03:37.092 : en: Chapter 2
00:09:18.349 : en: Chapter 3
00:13:22.343 : en: Chapter 4
00:16:55.681 : en: Chapter 5
00:22:49.910 : en: Chapter 6
00:27:42.035 : en: Chapter 7
00:32:01.878 : en: Chapter 8
00:38:23.843 : en: Chapter 9
00:44:51.397 : en: Chapter 10
00:51:22.162 : en: Chapter 11
00:56:50.782 : en: Chapter 12
01:01:31.062 : en: Chapter 13
01:08:08.293 : en: Chapter 14
01:13:12.221 : en: Chapter 15
01:17:02.284 : en: Chapter 16
01:21:08.447 : en: Chapter 17
01:25:17.195 : en: Chapter 18
01:29:20.355 : en: Chapter 19
01:34:59.277 : en: Chapter 20
01:40:19.513 : en: Chapter 21
01:43:49.181 : en: Chapter 22
01:47:46.794 : en: Chapter 23
01:52:30.661 : en: Chapter 24
01:56:30.775 : en: Chapter 25
02:04:22.121 : en: Chapter 26
02:09:17.458 : en: Chapter 27
02:19:59.057 : en: Chapter 28


Скачать A.Cure.For.Wellness.2016.BDRip.1080p.qqss44.mkv.torrent

просмотры: 17

Post Comment