Военный Зарубежные фильмы

Жизнь прекрасна / La vita è bella (1997) BDRip 1080p, BDRip 720p, SD | Р | ATV

Жизнь прекрасна / Life Is Beautiful / La vita è bella

Страна: Италия
Производство: Cecchi Gori Group Tiger Cinematografica, Melampo Cinematografica
Год выпуска: 1997
Жанр: драма, мелодрама, комедия, военный
Продолжительность: 01:56:11

Режиссер: Роберто Бениньи
Авторы сценария: Винченцо Черами, Роберто Бениньи

В ролях: Роберто Бениньи, Николетта Браски, Джорджио Кантарини, Джустино Дурано, Серджио Бини Бустрик, Мариса Паредес, Хорст Буххольц

Описание: Во время II Мировой войны в Италии в концлагерь были отправлены евреи, отец и его маленький сын. Жена, итальянка, добровольно последовала вслед за ними. В лагере отец сказал сыну, что всё происходящее вокруг является очень большой игрой за приз в настоящий танк, который достанется тому мальчику, который сможет не попасться на глаза надзирателям. Он сделал всё, чтобы сын поверил в игру и остался жив, прячась в бараке…

Перевод: Профессиональный (многоголосый, закадровый) | R5
Субтитры: русские, английские

Бюджет: $20 000 000
Дата премьеры (мир): 20 декабря 1997



Премия Оскар, 1999 год
» Лучшая мужская роль (Роберто Бениньи)
» Лучший саундтрек к драматическому фильму
» Лучший фильм на иностранном языке — «Италия»


Качество: BDRip 1080p
Формат: M4V
Видео кодек: AVC
Аудио кодек: AAC | АС3
Видео №1: 1920×1040 (1.85:1), 23.976 fps, MPEG-4 AVC ~13.6 Мbps avg
Видео №2: 640×346 (1.85:1), 0.003 fps, MPEG-4 AVC ~1 356 bps avg

Аудио №1: 48.0 kHz, Advanced Audio Codec LC, 2/0 (L,R) ch, ~165 kbps | RUS
Аудио №2: 48.0 kHz, Advanced Audio Codec LC, 2/0 (L,R) ch, ~164 kbps | ITA
Аудио №3: 48.0 kHz, AC3 Dolby Digital, 3/2 (L,C,R,l,r) + LFE ch, ~384 kbps | RUS
Аудио №4: 48.0 kHz, AC3 Dolby Digital, 3/2 (L,C,R,l,r) + LFE ch, ~384 kbps | ITA
Формат субтитров: Timed text, Apple text

Media Info BDRip 1080p
General
Полное имя : La Vita e bella (1080p HD).m4v
Формат : MPEG-4
Профиль формата : Base Media / Version 2
Идентификатор кодека : mp42
Размер файла : 11,9 Гбайт
Продолжительность : 1 ч. 56 м.
Режим общего битрейта : Переменный
Общий поток : 14,6 Мбит/сек
Название фильма : La Vita è bella
Исполнитель : Roberto Benigni
Жанр : Drama
Дата записи : 1997-12-20
Дата кодирования : UTC 2012-08-22 19:52:05
Дата пометки : UTC 2012-08-26 15:40:41
Правообладатель : © 1997 MIRAMAX
hdvd : 2
stik : 9
rtng : 0
cnID : 495529656
xid : ATV:vendor_id:1997-381
iTunEXTC : mpaa|PG-13|300|

Видео #1
Идентификатор : 1
Формат : AVC
Формат/Информация : Advanced Video Codec
Профиль формата : [email protected]
Параметр CABAC формата : Да
Параметр ReFrames формата : 4 кадра
Идентификатор кодека : avc1
Идентификатор кодека/Информация : Advanced Video Coding
Продолжительность : 1 ч. 56 м.
Вид битрейта : Переменный
Битрейт : 13,6 Мбит/сек
Ширина : 1920 пикселей
Высота : 1040 пикселей
Соотношение сторон : 1,85:1
Режим частоты кадров : Переменный
Частота кадров : 23,976 кадра/сек
Минимальная частота кадров : 23,974 кадра/сек
Максимальная частота кадров : 23,981 кадра/сек
Цветовое пространство : YUV
Субдискретизация насыщенности : 4:2:0
Битовая глубина : 8 бит
Тип развёртки : Прогрессивная
Бит/(Пиксели*Кадры) : 0.283
Размер потока : 11,0 Гбайт (92%)
Библиотека кодирования : x264 core 120
Настройки программы : cabac=1 / ref=4 / deblock=1:-2:-2 / analyse=0x3:0x113 / me=umh / subme=9 / psy=1 / psy_rd=1.10:0.05 / mixed_ref=1 / me_range=32 / chroma_me=1 / trellis=2 / 8x8dct=1 / cqm=0 / deadzone=21,11 / fast_pskip=1 / chroma_qp_offset=-3 / threads=12 / sliced_threads=0 / nr=0 / decimate=1 / interlaced=0 / bluray_compat=0 / constrained_intra=0 / bframes=8 / b_pyramid=0 / b_adapt=1 / b_bias=0 / direct=1 / weightb=0 / open_gop=0 / weightp=0 / keyint=240 / keyint_min=24 / scenecut=40 / intra_refresh=0 / rc_lookahead=40 / rc=2pass / mbtree=1 / bitrate=13550 / ratetol=1.0 / qcomp=0.60 / qpmin=3 / qpmax=69 / qpstep=4 / cplxblur=20.0 / qblur=0.5 / vbv_maxrate=25000 / vbv_bufsize=25000 / nal_hrd=none / ip_ratio=1.40 / aq=1:0.95
Язык : Italian
Дата кодирования : UTC 2012-08-22 19:52:05
Дата пометки : UTC 2012-08-23 08:20:44
Основные цвета : BT.709-5, BT.1361, IEC 61966-2-4, SMPTE RP177
Характеристики трансфера : BT.709-5, BT.1361
Коэффициенты матрицы : BT.709-5, BT.1361, IEC 61966-2-4 709, SMPTE RP177

Видео #2
Идентификатор : 9
Формат : JPEG
Идентификатор кодека : jpeg
Продолжительность : 1 ч. 56 м.
Вид битрейта : Переменный
Битрейт : 1356 бит/сек
Ширина : 640 пикселей
Высота : 346 пикселей
Соотношение сторон : 1,85:1
Режим частоты кадров : Переменный
Частота кадров : 0,003 кадр/сек
Минимальная частота кадров : 0,001 кадр/сек
Максимальная частота кадров : 0,008 кадр/сек
Цветовое пространство : YUV
Субдискретизация насыщенности : 4:2:0
Битовая глубина : 8 бит
Метод сжатия : С потерями
Бит/(Пиксели*Кадры) : 2.041
Размер потока : 1,13 Мбайт (0%)
Язык : Italian
Дата кодирования : UTC 2012-08-26 15:39:07
Дата пометки : UTC 2012-08-26 15:39:09

Аудио #1
Идентификатор : 2
Формат : AAC
Формат/Информация : Advanced Audio Codec
Профиль формата : LC
Идентификатор кодека : 40
Продолжительность : 1 ч. 56 м.
Вид битрейта : Переменный
Битрейт : 165 Кбит/сек
Максимальный битрейт : 252 Кбит/сек
Каналы : 2 канала
Расположение каналов : Front: L R
Частота : 48,0 КГц
Метод сжатия : С потерями
Задержка видео : -42 мс.
Размер потока : 137 Мбайт (1%)
Язык : Russian
Дата кодирования : UTC 2012-08-26 15:38:18
Дата пометки : UTC 2012-08-26 15:38:27

Аудио #2
Идентификатор : 3
Формат : AAC
Формат/Информация : Advanced Audio Codec
Профиль формата : LC
Идентификатор кодека : 40
Продолжительность : 1 ч. 56 м.
Вид битрейта : Переменный
Битрейт : 164 Кбит/сек
Максимальный битрейт : 246 Кбит/сек
Каналы : 2 канала
Расположение каналов : Front: L R
Частота : 48,0 КГц
Метод сжатия : С потерями
Задержка видео : -42 мс.
Размер потока : 136 Мбайт (1%)
Язык : Italian
Дата кодирования : UTC 2012-08-26 15:38:18
Дата пометки : UTC 2012-08-26 15:38:36

Аудио #3
Идентификатор : 4
Формат : AC-3
Формат/Информация : Audio Coding 3
Расширение режима : CM (complete main)
Параметр Endianness формата : Big
Идентификатор кодека : ac-3
Продолжительность : 1 ч. 56 м.
Вид битрейта : Постоянный
Битрейт : 384 Кбит/сек
Каналы : 6 каналов
Расположение каналов : Front: L C R, Side: L R, LFE
Частота : 48,0 КГц
Битовая глубина : 16 бит
Метод сжатия : С потерями
Задержка видео : -42 мс.
Размер потока : 319 Мбайт (3%)
Язык : Russian
Дата кодирования : UTC 2012-08-26 15:38:18
Дата пометки : UTC 2012-08-26 15:38:43

Аудио #4
Идентификатор : 5
Формат : AC-3
Формат/Информация : Audio Coding 3
Расширение режима : CM (complete main)
Параметр Endianness формата : Big
Идентификатор кодека : ac-3
Продолжительность : 1 ч. 56 м.
Вид битрейта : Постоянный
Битрейт : 384 Кбит/сек
Каналы : 6 каналов
Расположение каналов : Front: L C R, Side: L R, LFE
Частота : 48,0 КГц
Битовая глубина : 16 бит
Метод сжатия : С потерями
Задержка видео : -42 мс.
Размер потока : 319 Мбайт (3%)
Язык : Italian
Дата кодирования : UTC 2012-08-26 15:38:18
Дата пометки : UTC 2012-08-26 15:38:50

Текст #1
Идентификатор : 6
Формат : Timed text
Режим смешивания : sbtl
Идентификатор кодека : tx3g
Продолжительность : 1 ч. 52 м.
Вид битрейта : Переменный
Битрейт : 105 бит/сек
Задержка видео : -42 мс.
Размер потока : 86,2 Кбайт (0%)
Язык : Russian
Дата кодирования : UTC 2012-08-26 15:38:18
Дата пометки : UTC 2012-08-26 15:38:50

Текст #2
Идентификатор : 7
Формат : Timed text
Режим смешивания : sbtl
Идентификатор кодека : tx3g
Продолжительность : 1 ч. 56 м.
Вид битрейта : Переменный
Битрейт : 58 бит/сек
Задержка видео : -42 мс.
Размер потока : 49,4 Кбайт (0%)
Язык : English
Дата кодирования : UTC 2012-08-26 15:38:18
Дата пометки : UTC 2012-08-26 15:38:50

Текст #3
Идентификатор : 10
Формат : Apple text
Идентификатор кодека : text
Продолжительность : 1 ч. 56 м.
Вид битрейта : Переменный
Битрейт : 1 бит/сек
Задержка видео : -42 мс.
Размер потока : 495 байт (0%)
Дата кодирования : UTC 2012-08-26 15:40:19
Дата пометки : UTC 2012-08-26 15:40:19

Меню
00:00:00.000 : Chapter 1
00:05:41.883 : Chapter 2
00:11:20.721 : Chapter 3
00:16:43.544 : Chapter 4
00:20:43.283 : Chapter 5
00:25:21.561 : Chapter 6
00:32:53.513 : Chapter 7
00:35:57.196 : Chapter 8
00:39:55.476 : Chapter 9
00:47:40.440 : Chapter 10
00:51:17.657 : Chapter 11
00:54:11.831 : Chapter 12
00:56:16.456 : Chapter 13
01:02:07.306 : Chapter 14
01:09:36.255 : Chapter 15
01:13:45.003 : Chapter 16
01:19:49.367 : Chapter 17
01:22:26.024 : Chapter 18
01:29:54.472 : Chapter 19
01:38:55.012 : Chapter 20
01:52:42.881 : Chapter 21
Скриншоты


Качество: BDRip 720p
Формат: M4V
Видео кодек: AVC
Аудио кодек: AAC | АС3
Видео №1: 1280×692 (1.85:1), 23.976 fps, MPEG-4 AVC ~4 500 kbps avg
Видео №2: 640×346 (1.85:1), 0.003 fps, MPEG-4 AVC ~1 363 bps avg

Аудио №1: 48.0 kHz, Advanced Audio Codec LC, 2/0 (L,R) ch, ~165 kbps | RUS
Аудио №2: 48.0 kHz, Advanced Audio Codec LC, 2/0 (L,R) ch, ~164 kbps | ITA
Аудио №3: 48.0 kHz, AC3 Dolby Digital, 3/2 (L,C,R,l,r) + LFE ch, ~384 kbps | RUS
Аудио №4: 48.0 kHz, AC3 Dolby Digital, 3/2 (L,C,R,l,r) + LFE ch, ~384 kbps | ITA
Формат субтитров: Timed text, Apple text

Media Info BDRip 720p
General
Полное имя : La Vita e bellaLa Vita e bella (HD).m4v
Формат : MPEG-4
Профиль формата : Base Media / Version 2
Идентификатор кодека : mp42
Размер файла : 4,54 Гбайт
Продолжительность : 1 ч. 56 м.
Режим общего битрейта : Переменный
Общий поток : 5589 Кбит/сек
Название фильма : La Vita è bella
Исполнитель : Roberto Benigni
Жанр : Drama
Дата записи : 1997-12-20
Дата кодирования : UTC 2012-08-21 19:27:28
Дата пометки : UTC 2012-08-26 16:06:51
Правообладатель : © 1997 MIRAMAX
Обложка : Yes
hdvd : 1
stik : 9
rtng : 0
cnID : 495529656
xid : ATV:vendor_id:1997-381
iTunEXTC : mpaa|PG-13|300|

Видео #1
Идентификатор : 1
Формат : AVC
Формат/Информация : Advanced Video Codec
Профиль формата : [email protected]
Параметр CABAC формата : Нет
Параметр ReFrames формата : 3 кадра
Идентификатор кодека : avc1
Идентификатор кодека/Информация : Advanced Video Coding
Продолжительность : 1 ч. 56 м.
Вид битрейта : Переменный
Битрейт : 4500 Кбит/сек
Ширина : 1280 пикселей
Высота : 692 пикселя
Соотношение сторон : 1,85:1
Режим частоты кадров : Переменный
Частота кадров : 23,976 кадра/сек
Минимальная частота кадров : 23,974 кадра/сек
Максимальная частота кадров : 23,981 кадра/сек
Цветовое пространство : YUV
Субдискретизация насыщенности : 4:2:0
Битовая глубина : 8 бит
Тип развёртки : Прогрессивная
Бит/(Пиксели*Кадры) : 0.212
Размер потока : 3,64 Гбайт (80%)
Библиотека кодирования : x264 core 120
Настройки программы : cabac=0 / ref=3 / deblock=1:-2:-2 / analyse=0x3:0x113 / me=umh / subme=9 / psy=1 / psy_rd=1.10:0.05 / mixed_ref=1 / me_range=32 / chroma_me=1 / trellis=0 / 8x8dct=1 / cqm=0 / deadzone=21,11 / fast_pskip=1 / chroma_qp_offset=-2 / threads=12 / sliced_threads=0 / nr=0 / decimate=1 / interlaced=0 / bluray_compat=0 / constrained_intra=0 / bframes=8 / b_pyramid=0 / b_adapt=1 / b_bias=0 / direct=1 / weightb=0 / open_gop=0 / weightp=0 / keyint=240 / keyint_min=24 / scenecut=40 / intra_refresh=0 / rc_lookahead=40 / rc=2pass / mbtree=1 / bitrate=4500 / ratetol=1.0 / qcomp=0.60 / qpmin=3 / qpmax=69 / qpstep=4 / cplxblur=20.0 / qblur=0.5 / vbv_maxrate=9500 / vbv_bufsize=9500 / nal_hrd=none / ip_ratio=1.40 / aq=1:0.95
Язык : Italian
Дата кодирования : UTC 2012-08-21 19:27:28
Дата пометки : UTC 2012-08-21 22:32:10
Основные цвета : BT.709-5, BT.1361, IEC 61966-2-4, SMPTE RP177
Характеристики трансфера : BT.709-5, BT.1361
Коэффициенты матрицы : BT.709-5, BT.1361, IEC 61966-2-4 709, SMPTE RP177

Видео #2
Идентификатор : 9
Формат : JPEG
Идентификатор кодека : jpeg
Продолжительность : 1 ч. 56 м.
Вид битрейта : Переменный
Битрейт : 1363 бит/сек
Ширина : 640 пикселей
Высота : 346 пикселей
Соотношение сторон : 1,85:1
Режим частоты кадров : Переменный
Частота кадров : 0,003 кадр/сек
Минимальная частота кадров : 0,001 кадр/сек
Максимальная частота кадров : 0,008 кадр/сек
Цветовое пространство : YUV
Субдискретизация насыщенности : 4:2:0
Битовая глубина : 8 бит
Метод сжатия : С потерями
Бит/(Пиксели*Кадры) : 2.052
Размер потока : 1,14 Мбайт (0%)
Язык : Italian
Дата кодирования : UTC 2012-08-26 16:04:40
Дата пометки : UTC 2012-08-26 16:04:40

Аудио #1
Идентификатор : 2
Формат : AAC
Формат/Информация : Advanced Audio Codec
Профиль формата : LC
Идентификатор кодека : 40
Продолжительность : 1 ч. 56 м.
Вид битрейта : Переменный
Битрейт : 165 Кбит/сек
Максимальный битрейт : 252 Кбит/сек
Каналы : 2 канала
Расположение каналов : Front: L R
Частота : 48,0 КГц
Метод сжатия : С потерями
Задержка видео : -42 мс.
Размер потока : 137 Мбайт (3%)
Язык : Russian
Дата кодирования : UTC 2012-08-26 16:04:03
Дата пометки : UTC 2012-08-26 16:04:11

Аудио #2
Идентификатор : 3
Формат : AAC
Формат/Информация : Advanced Audio Codec
Профиль формата : LC
Идентификатор кодека : 40
Продолжительность : 1 ч. 56 м.
Вид битрейта : Переменный
Битрейт : 164 Кбит/сек
Максимальный битрейт : 246 Кбит/сек
Каналы : 2 канала
Расположение каналов : Front: L R
Частота : 48,0 КГц
Метод сжатия : С потерями
Задержка видео : -42 мс.
Размер потока : 136 Мбайт (3%)
Язык : Italian
Дата кодирования : UTC 2012-08-26 16:04:03
Дата пометки : UTC 2012-08-26 16:04:19

Аудио #3
Идентификатор : 4
Формат : AC-3
Формат/Информация : Audio Coding 3
Расширение режима : CM (complete main)
Параметр Endianness формата : Big
Идентификатор кодека : ac-3
Продолжительность : 1 ч. 56 м.
Вид битрейта : Постоянный
Битрейт : 384 Кбит/сек
Каналы : 6 каналов
Расположение каналов : Front: L C R, Side: L R, LFE
Частота : 48,0 КГц
Битовая глубина : 16 бит
Метод сжатия : С потерями
Задержка видео : -42 мс.
Размер потока : 319 Мбайт (7%)
Язык : Russian
Дата кодирования : UTC 2012-08-26 16:04:03
Дата пометки : UTC 2012-08-26 16:04:24

Аудио #4
Идентификатор : 5
Формат : AC-3
Формат/Информация : Audio Coding 3
Расширение режима : CM (complete main)
Параметр Endianness формата : Big
Идентификатор кодека : ac-3
Продолжительность : 1 ч. 56 м.
Вид битрейта : Постоянный
Битрейт : 384 Кбит/сек
Каналы : 6 каналов
Расположение каналов : Front: L C R, Side: L R, LFE
Частота : 48,0 КГц
Битовая глубина : 16 бит
Метод сжатия : С потерями
Задержка видео : -42 мс.
Размер потока : 319 Мбайт (7%)
Язык : Italian
Дата кодирования : UTC 2012-08-26 16:04:03
Дата пометки : UTC 2012-08-26 16:04:31

Текст #1
Идентификатор : 6
Формат : Timed text
Режим смешивания : sbtl
Идентификатор кодека : tx3g
Продолжительность : 1 ч. 52 м.
Вид битрейта : Переменный
Битрейт : 105 бит/сек
Задержка видео : -42 мс.
Размер потока : 86,2 Кбайт (0%)
Язык : Russian
Дата кодирования : UTC 2012-08-26 16:04:03
Дата пометки : UTC 2012-08-26 16:04:31

Текст #2
Идентификатор : 7
Формат : Timed text
Режим смешивания : sbtl
Идентификатор кодека : tx3g
Продолжительность : 1 ч. 56 м.
Вид битрейта : Переменный
Битрейт : 58 бит/сек
Задержка видео : -42 мс.
Размер потока : 49,4 Кбайт (0%)
Язык : English
Дата кодирования : UTC 2012-08-26 16:04:03
Дата пометки : UTC 2012-08-26 16:04:31

Текст #3
Идентификатор : 10
Формат : Apple text
Идентификатор кодека : text
Продолжительность : 1 ч. 56 м.
Вид битрейта : Переменный
Битрейт : 1 бит/сек
Задержка видео : -42 мс.
Размер потока : 495 байт (0%)
Дата кодирования : UTC 2012-08-26 16:06:38
Дата пометки : UTC 2012-08-26 16:06:38

Меню
00:00:00.000 : Chapter 1
00:05:41.883 : Chapter 2
00:11:20.721 : Chapter 3
00:16:43.544 : Chapter 4
00:20:43.283 : Chapter 5
00:25:21.561 : Chapter 6
00:32:53.513 : Chapter 7
00:35:57.196 : Chapter 8
00:39:55.476 : Chapter 9
00:47:40.440 : Chapter 10
00:51:17.657 : Chapter 11
00:54:11.831 : Chapter 12
00:56:16.456 : Chapter 13
01:02:07.306 : Chapter 14
01:09:36.255 : Chapter 15
01:13:45.003 : Chapter 16
01:19:49.367 : Chapter 17
01:22:26.024 : Chapter 18
01:29:54.472 : Chapter 19
01:38:55.012 : Chapter 20
01:52:42.881 : Chapter 21
Скриншоты


Качество: Secure Digital
Формат: M4V
Видео кодек: AVC
Аудио кодек: AAC | АС3
Видео №1: [email protected]×460 (1.85:1), 23.976 fps, MPEG-4 AVC ~1 500 kbps avg
Видео №2: 640×345 (1.85:1), 0.003 fps, MPEG-4 AVC ~1 257 bps avg

Аудио №1: 48.0 kHz, Advanced Audio Codec LC, 2/0 (L,R) ch, ~132 kbps | RUS
Аудио №2: 48.0 kHz, Advanced Audio Codec LC, 2/0 (L,R) ch, ~132 kbps | ITA
Формат субтитров: Timed text, Apple text

Media Info Secure Digital
General
Полное имя : La Vita e bella.m4v
Формат : MPEG-4
Профиль формата : Base Media / Version 2
Идентификатор кодека : mp42
Размер файла : 1,44 Гбайт
Продолжительность : 1 ч. 56 м.
Режим общего битрейта : Переменный
Общий поток : 1770 Кбит/сек
Название фильма : La Vita è bella
Исполнитель : Roberto Benigni
Жанр : Drama
Дата записи : 1997-12-20
Дата кодирования : UTC 2012-08-22 13:48:14
Дата пометки : UTC 2012-08-26 16:17:58
Правообладатель : © 1997 MIRAMAX
Обложка : Yes
stik : 9
rtng : 0
cnID : 495529656
xid : ATV:vendor_id:1997-381
iTunEXTC : mpaa|PG-13|300|

Видео #1
Идентификатор : 1
Формат : AVC
Формат/Информация : Advanced Video Codec
Профиль формата : [email protected]
Параметр CABAC формата : Нет
Параметр ReFrames формата : 2 кадра
Идентификатор кодека : avc1
Идентификатор кодека/Информация : Advanced Video Coding
Продолжительность : 1 ч. 56 м.
Вид битрейта : Переменный
Битрейт : 1500 Кбит/сек
Ширина : 640 пикселей
Высота : 460 пикселей
Соотношение сторон : 1,85:1
Режим частоты кадров : Переменный
Частота кадров : 23,976 кадра/сек
Минимальная частота кадров : 23,974 кадра/сек
Максимальная частота кадров : 23,981 кадра/сек
Цветовое пространство : YUV
Субдискретизация насыщенности : 4:2:0
Битовая глубина : 8 бит
Тип развёртки : Прогрессивная
Бит/(Пиксели*Кадры) : 0.213
Размер потока : 1,22 Гбайт (85%)
Библиотека кодирования : x264 core 120
Настройки программы : cabac=0 / ref=2 / deblock=1:-2:-2 / analyse=0x1:0x131 / me=umh / subme=6 / psy=1 / psy_rd=0.00:0.00 / mixed_ref=1 / me_range=24 / chroma_me=1 / trellis=0 / 8x8dct=0 / cqm=0 / deadzone=21,11 / fast_pskip=0 / chroma_qp_offset=0 / threads=12 / sliced_threads=0 / nr=0 / decimate=1 / interlaced=0 / bluray_compat=0 / constrained_intra=0 / bframes=0 / weightp=0 / keyint=240 / keyint_min=24 / scenecut=40 / intra_refresh=0 / rc_lookahead=40 / rc=2pass / mbtree=1 / bitrate=1500 / ratetol=1.0 / qcomp=0.60 / qpmin=3 / qpmax=69 / qpstep=4 / cplxblur=20.0 / qblur=0.5 / ip_ratio=1.40 / aq=1:1.00
Язык : Italian
Дата кодирования : UTC 2012-08-22 13:48:14
Дата пометки : UTC 2012-08-22 14:31:47
Основные цвета : BT.709-5, BT.1361, IEC 61966-2-4, SMPTE RP177
Характеристики трансфера : BT.709-5, BT.1361
Коэффициенты матрицы : BT.709-5, BT.1361, IEC 61966-2-4 709, SMPTE RP177

Видео #2
Идентификатор : 7
Формат : JPEG
Идентификатор кодека : jpeg
Продолжительность : 1 ч. 56 м.
Вид битрейта : Переменный
Битрейт : 1257 бит/сек
Ширина : 640 пикселей
Высота : 345 пикселей
Соотношение сторон : 1,85:1
Режим частоты кадров : Переменный
Частота кадров : 0,003 кадр/сек
Минимальная частота кадров : 0,001 кадр/сек
Максимальная частота кадров : 0,008 кадр/сек
Цветовое пространство : YUV
Субдискретизация насыщенности : 4:2:0
Битовая глубина : 8 бит
Метод сжатия : С потерями
Бит/(Пиксели*Кадры) : 1.898
Размер потока : 1,05 Мбайт (0%)
Язык : Italian
Дата кодирования : UTC 2012-08-26 16:16:30
Дата пометки : UTC 2012-08-26 16:16:30

Аудио #1
Идентификатор : 2
Формат : AAC
Формат/Информация : Advanced Audio Codec
Профиль формата : LC
Идентификатор кодека : 40
Продолжительность : 1 ч. 56 м.
Вид битрейта : Переменный
Битрейт : 132 Кбит/сек
Максимальный битрейт : 211 Кбит/сек
Каналы : 2 канала
Расположение каналов : Front: L R
Частота : 48,0 КГц
Метод сжатия : С потерями
Размер потока : 110 Мбайт (7%)
Язык : Russian
Дата кодирования : UTC 2012-08-26 16:16:07
Дата пометки : UTC 2012-08-26 16:16:14

Аудио #2
Идентификатор : 3
Формат : AAC
Формат/Информация : Advanced Audio Codec
Профиль формата : LC
Идентификатор кодека : 40
Продолжительность : 1 ч. 56 м.
Вид битрейта : Переменный
Битрейт : 132 Кбит/сек
Максимальный битрейт : 206 Кбит/сек
Каналы : 2 канала
Расположение каналов : Front: L R
Частота : 48,0 КГц
Метод сжатия : С потерями
Размер потока : 109 Мбайт (7%)
Язык : Italian
Дата кодирования : UTC 2012-08-26 16:16:07
Дата пометки : UTC 2012-08-26 16:16:22

Текст #1
Идентификатор : 4
Формат : Timed text
Режим смешивания : sbtl
Идентификатор кодека : tx3g
Продолжительность : 1 ч. 52 м.
Вид битрейта : Переменный
Битрейт : 105 бит/сек
Размер потока : 86,2 Кбайт (0%)
Язык : Russian
Дата кодирования : UTC 2012-08-26 16:16:07
Дата пометки : UTC 2012-08-26 16:16:22

Текст #2
Идентификатор : 5
Формат : Timed text
Режим смешивания : sbtl
Идентификатор кодека : tx3g
Продолжительность : 1 ч. 56 м.
Вид битрейта : Переменный
Битрейт : 58 бит/сек
Размер потока : 49,4 Кбайт (0%)
Язык : English
Дата кодирования : UTC 2012-08-26 16:16:07
Дата пометки : UTC 2012-08-26 16:16:22

Текст #3
Идентификатор : 8
Формат : Apple text
Идентификатор кодека : text
Продолжительность : 1 ч. 56 м.
Вид битрейта : Переменный
Битрейт : 1 бит/сек
Размер потока : 495 байт (0%)
Дата кодирования : UTC 2012-08-26 16:17:43
Дата пометки : UTC 2012-08-26 16:17:43

Меню
00:00:00.000 : Chapter 1
00:05:41.883 : Chapter 2
00:11:20.721 : Chapter 3
00:16:43.544 : Chapter 4
00:20:43.283 : Chapter 5
00:25:21.561 : Chapter 6
00:32:53.513 : Chapter 7
00:35:57.196 : Chapter 8
00:39:55.476 : Chapter 9
00:47:40.440 : Chapter 10
00:51:17.657 : Chapter 11
00:54:11.831 : Chapter 12
00:56:16.456 : Chapter 13
01:02:07.306 : Chapter 14
01:09:36.255 : Chapter 15
01:13:45.003 : Chapter 16
01:19:49.367 : Chapter 17
01:22:26.024 : Chapter 18
01:29:54.472 : Chapter 19
01:38:55.012 : Chapter 20
01:52:42.881 : Chapter 21
Скриншоты


Дополнительная информация: релиз подготовлен для просмотра на Apple TV, iPad, iPhone, iPod Touch.
Для просмотра данного релиза на компьютере с ОС Windows рекомендуется использовать VLC media player


Скачать Life_is_beautiful.torrent

просмотры: 2

Post Comment