Биография Зарубежные фильмы

Сноуден / Snowden (2016) BDRip 1080p | iTunes | ATV

Сноуден / Snowden

Страна: США Германия Франция
Производство: Endgame Entertainment, KrautPack Entertainment, Vendian Entertainment
Год выпуска: 2016
Жанр: триллер, драма, биография
Продолжительность: 02:14:49

Режиссер: Оливер Стоун
Авторы сценария: Киран Фицджералд, Оливер Стоун, Анатолий Кучерена

В ролях: Джозеф Гордон-Левитт, Шейлин Вудли, Мелисса Лео, Закари Куинто, Том Уилкинсон, Скотт Иствуд, Рис Иванс, Николас Кейдж, Тимоти Олифант

Описание: Он мечтал продолжить семейную традицию и посвятить свою жизнь служению Родине. Он безоговорочно верил в правительство США и поддерживал антитеррористическую программу. На заре его карьеры в спецслужбах никто, даже он сам, не мог бы предположить, что именно он, Эдвард Сноуден, совершит самое крупное разоблачение в мировой истории, обнародовав секретные документы, касающиеся тотальной слежки США за своими гражданами и гражданами других государств. Открыв миру глаза на правду, он навсегда закрыл для себя двери в счастливое будущее: отказался от карьеры, любимой девушки и Родины, которая назвала его предателем…

Перевод: Профессиональный (полное дублирование) | iTunes
Субтитры: русские (full), английские (full)


Качество: BDRip 1080p
Формат: M4V
Видео кодек: AVC
Аудио кодек: AAC | АС3
Видео №1: 1920×800 (2.40:1), 23.976 fps, MPEG-4 AVC ~8 000 kbps avg
Видео №2: 640×266 (2.40:1), 0.002 fps, MPEG-4 AVC ~817 bps avg

Аудио №1: 48.0 kHz, Advanced Audio Codec LC, 2/0 (L,R) ch, ~156 kbps | RUS
Аудио №2: 48.0 kHz, Advanced Audio Codec LC, 2/0 (L,R) ch, ~157 kbps | ENG
Аудио №3: 48.0 kHz, AC3 Dolby Digital, 3/2 (L,C,R,l,r) + LFE ch, ~384 kbps | RUS
Аудио №4: 48.0 kHz, AC3 Dolby Digital, 3/2 (L,C,R,l,r) + LFE ch, ~640 kbps | ENG
Формат субтитров: Timed text, Apple text

Дата премьеры (мир): 21 июля 2016
Дата премьеры (РФ): 15 сентября 2016, «Централ Партнершип»

Media Info
General
Complete name : Snowden (1080p HD).m4v
Format : MPEG-4
Codec ID : M4V (M4V /M4A /mp42/isom)
File size : 8.80 GiB
Duration : 2h 14mn
Overall bit rate mode : Variable
Overall bit rate : 9 342 Kbps
Recorded date : UTC 2016-07-21 08:00:00
Encoded date : UTC 2016-12-30 09:44:39
Tagged date : UTC 2016-12-30 09:50:40
Copyright : © 2016 Open Road Films. All Rights Reserved.
AppleStoreCatalogID : 1153715896
Vendor : Apple:vendor_id:2016-843831
ContentRating : mpaa|R|400|

Video #1
ID : 1
Format : AVC
Format/Info : Advanced Video Codec
Format profile : [email protected]
Format settings, CABAC : Yes
Format settings, ReFrames : 4 frames
Codec ID : avc1
Codec ID/Info : Advanced Video Coding
Duration : 2h 14mn
Source duration : 2h 14mn
Bit rate : 8 000 Kbps
Width : 1 920 pixels
Height : 800 pixels
Display aspect ratio : 2.40:1
Frame rate mode : Variable
Frame rate : 23.976 (24000/1001) fps
Minimum frame rate : 23.974 fps
Maximum frame rate : 23.981 fps
Color space : YUV
Chroma subsampling : 4:2:0
Bit depth : 8 bits
Scan type : Progressive
Bits/(Pixel*Frame) : 0.217
Stream size : 7.53 GiB (86%)
Source stream size : 7.53 GiB (86%)
Title : Main Program
Writing library : x264 core 142 r2479 dd79a61
Encoding settings : cabac=1 / ref=4 / deblock=1:-2:-2 / analyse=0x3:0x133 / me=umh / subme=10 / psy=1 / psy_rd=1.00:0.15 / mixed_ref=1 / me_range=32 / chroma_me=1 / trellis=2 / 8x8dct=1 / cqm=0 / deadzone=21,11 / fast_pskip=0 / chroma_qp_offset=-3 / threads=36 / lookahead_threads=6 / sliced_threads=0 / nr=0 / decimate=0 / interlaced=0 / bluray_compat=0 / constrained_intra=0 / bframes=16 / b_pyramid=2 / b_adapt=2 / b_bias=0 / direct=3 / weightb=1 / open_gop=0 / weightp=2 / keyint=240 / keyint_min=24 / scenecut=40 / intra_refresh=0 / rc_lookahead=60 / rc=2pass / mbtree=1 / bitrate=8000 / ratetol=1.0 / qcomp=0.70 / qpmin=0 / qpmax=69 / qpstep=4 / cplxblur=20.0 / qblur=0.5 / vbv_maxrate=25000 / vbv_bufsize=25000 / nal_hrd=none / filler=0 / ip_ratio=1.40 / aq=1:1.00
Language : English
Encoded date : UTC 2016-12-30 09:44:39
Tagged date : UTC 2016-12-30 09:45:15
Color range : Limited
Color primaries : BT.709
Transfer characteristics : BT.709
Matrix coefficients : BT.709
Menus : 8,9

Video #2
ID : 9
Format : JPEG
Codec ID : jpeg
Duration : 2h 14mn
Bit rate mode : Variable
Bit rate : 817 bps
Width : 640 pixels
Height : 266 pixels
Display aspect ratio : 2.40:1
Frame rate mode : Variable
Frame rate : 0.002 fps
Minimum frame rate : 0.001 fps
Maximum frame rate : 0.005 fps
Color space : YUV
Chroma subsampling : 4:2:0
Bit depth : 8 bits
Compression mode : Lossy
Bits/(Pixel*Frame) : 2.400
Stream size : 997 KiB (0%)
Title : Chapter Images
Language : English
Default : No
Encoded date : UTC 2016-12-30 09:45:59
Tagged date : UTC 2016-12-30 09:45:59
Menu For : 1

Audio #1
ID : 2
Format : AAC
Format/Info : Advanced Audio Codec
Format profile : LC
Codec ID : 40
Duration : 2h 14mn
Bit rate mode : Variable
Bit rate : 156 Kbps
Maximum bit rate : 222 Kbps
Channel(s) : 2 channels
Channel positions : Front: L R
Sampling rate : 48.0 KHz
Frame rate : 46.875 fps (1024 spf)
Compression mode : Lossy
Stream size : 150 MiB (2%)
Title : Russian Stereo
Language : Russian
Default : Yes
Alternate group : 1
Encoded date : UTC 2016-12-30 09:44:39
Tagged date : UTC 2016-12-30 09:45:16
Fallback From : 4
Menus : 8

Audio #2
ID : 3
Format : AAC
Format/Info : Advanced Audio Codec
Format profile : LC
Codec ID : 40
Duration : 2h 14mn
Bit rate mode : Variable
Bit rate : 157 Kbps
Maximum bit rate : 247 Kbps
Channel(s) : 2 channels
Channel positions : Front: L R
Sampling rate : 48.0 KHz
Frame rate : 46.875 fps (1024 spf)
Compression mode : Lossy
Stream size : 151 MiB (2%)
Title : English Stereo
Language : English
Default : No
Alternate group : 1
Encoded date : UTC 2016-12-30 09:44:39
Tagged date : UTC 2016-12-30 09:45:16
Fallback From : 5

Audio #3
ID : 4
Format : AC-3
Format/Info : Audio Coding 3
Mode extension : CM (complete main)
Format settings, Endianness : Big
Codec ID : ac-3
Duration : 2h 14mn
Bit rate mode : Constant
Bit rate : 384 Kbps
Channel(s) : 6 channels
Channel positions : Front: L C R, Side: L R, LFE
Sampling rate : 48.0 KHz
Frame rate : 31.250 fps (1536 spf)
Bit depth : 16 bits
Compression mode : Lossy
Stream size : 370 MiB (4%)
Title : Russian DD 5.1
Language : Russian
Default : Inherited From: 2
Alternate group : 1
Encoded date : UTC 2016-12-30 09:44:39
Tagged date : UTC 2016-12-30 09:44:46
Fallback To : 2

Audio #4
ID : 5
Format : AC-3
Format/Info : Audio Coding 3
Mode extension : CM (complete main)
Format settings, Endianness : Big
Codec ID : ac-3
Duration : 2h 14mn
Bit rate mode : Constant
Bit rate : 640 Kbps
Channel(s) : 6 channels
Channel positions : Front: L C R, Side: L R, LFE
Sampling rate : 48.0 KHz
Frame rate : 31.250 fps (1536 spf)
Bit depth : 16 bits
Compression mode : Lossy
Stream size : 617 MiB (7%)
Title : English DD 5.1
Language : English
Default : No
Alternate group : 1
Encoded date : UTC 2016-12-30 09:44:39
Tagged date : UTC 2016-12-30 09:44:46
Fallback To : 3

Text #1
ID : 6
Format : Timed Text
Muxing mode : sbtl
Codec ID : tx3g
Duration : 2h 10mn
Bit rate mode : Variable
Bit rate : 108 bps
Stream size : 103 KiB (0%)
Title : Russian full
Language : Russian
Default : Yes
Forced : No
Alternate group : 2
Encoded date : UTC 2016-12-30 09:44:39
Tagged date : UTC 2016-12-30 09:45:49

Text #2
ID : 7
Format : Timed Text
Muxing mode : sbtl
Codec ID : tx3g
Duration : 2h 10mn
Bit rate mode : Variable
Bit rate : 99 bps
Stream size : 94.2 KiB (0%)
Title : English fhll
Language : English
Default : No
Forced : No
Alternate group : 2
Encoded date : UTC 2016-12-30 09:44:39
Tagged date : UTC 2016-12-30 09:45:49

Menu #1
00:00:00.000 : Chapter 1
00:07:42.462 : Chapter 2
00:15:50.074 : Chapter 3
00:20:06.122 : Chapter 4
00:26:32.090 : Chapter 5
00:30:11.059 : Chapter 6
00:35:29.419 : Chapter 7
00:41:42.959 : Chapter 8
00:51:45.853 : Chapter 9
00:59:14.384 : Chapter 10
01:04:44.506 : Chapter 11
01:12:47.154 : Chapter 12
01:18:07.558 : Chapter 13
01:25:11.481 : Chapter 14
01:30:30.800 : Chapter 15
01:38:11.511 : Chapter 16
01:50:06.225 : Chapter 17
01:57:00.055 : Chapter 18
02:03:22.437 : Chapter 19
02:07:48.995 : Chapter 20

Menu #2
ID : 8
Codec ID : text
Duration : 2h 14mn
Language : English
Encoded date : UTC 2016-12-30 09:45:49
Tagged date : UTC 2016-12-30 09:45:49
Menu For : 2,1
00:00:00.000 : Chapter 1
00:07:42.462 : Chapter 2
00:15:50.074 : Chapter 3
00:20:06.122 : Chapter 4
00:26:32.090 : Chapter 5
00:30:11.059 : Chapter 6
00:35:29.419 : Chapter 7
00:41:42.959 : Chapter 8
00:51:45.853 : Chapter 9
00:59:14.384 : Chapter 10
01:04:44.506 : Chapter 11
01:12:47.154 : Chapter 12
01:18:07.558 : Chapter 13
01:25:11.481 : Chapter 14
01:30:30.800 : Chapter 15
01:38:11.511 : Chapter 16
01:50:06.225 : Chapter 17
01:57:00.055 : Chapter 18
02:03:22.437 : Chapter 19
02:07:48.995 : Chapter 20
Bit rate mode : VBR
Скриншоты


Дополнительная информация: релиз подготовлен для просмотра на Apple TV, iPad, iPhone, iPod Touch.
Для просмотра данного релиза на компьютере с ОС Windows рекомендуется использовать VLC media player


Скачать Snowden.torrent

просмотры: 10

Post Comment