Аниме

Призрак в доспехах: Синдром одиночки / Ghost in the Shell: Stand Alone Complex [OVA-1] (2005) BDRip-HEVC 1080p от HEVC CLUB | L1


Название: Призрак в доспехах: Синдром одиночки OVA-1
Оригинальное название: Koukaku Kidoutai: Stand Alone Complex — The Laughing Man [OVA]


Год выпуска: 2005
Страна: Япония
Жанр: приключения, фантастика
Продолжительность: 02:40:15
Перевод: Одноголосый [Cuba77], дублированный [Английский]
Субтитры: русские, английские


Режиссёр: Камияма Кэндзи
Снято по манге: Koukaku Kidoutai


Описание: В будущем грань между дигитальным и физическим мирами заметно стёрлась, кибертроника изменила жизнь человечества до неузнаваемости, создав новый синтетический уровень существования и сведя людей в единую Сеть. Однако сближение живых организмов и машин оказалось чревато опаснейшими последствиями, предоставив злоумышленникам невиданные доселе возможности манипулирования человеческим сознанием. Для предотвращения подобных технопреступлений и был создан Девятый Отдел. Это элитное подразделение полиции сканирует как физический, так и кибернетический миры для выявления вредоносной деятельности хакеров, кибер-террористов и взбесившихся машин. В случае необходимости на поимку преступников отправляется оперативная группа профессионалов, каждый из членов которой наделён особыми качествами. Бато, человек, начинённый электроникой, обладает стальными глазами и мощными бицепсами из титаниума. Детектив Тогуса, человек без каких-либо кибер-добавок, обогащает команду своей иррацинальной интуицией. Ведёт группу неотразимая Матоко Кусанаги, киборг с сознанием, близким к Божественному откровению. Когда в действии такая блестящая группа, прикрываемая в политической сфере шефом Девятого Отдела Арамаки и снабжённая впечатляющей военной технологией, мир может спать спокойно.


Качество: BDRip 1080p
Формат: MKV
Видео кодек: [email protected]
Аудио кодек: AC3, TrueHD
Видео: 1920×1036, 29,970 fps, HEVC, ~1972 kbps, 10bit
Аудио: Rus, 48 kHz/16-bit, AC3 5.1, ~448 kbps | Одноголосый
Аудио: Eng, 48 kHz, TrueHD 5.1, ~1557 kbps | Дубляж ENG
Аудио: Jpn, 48 kHz, TrueHD 5.1, ~1534 kbps | Оригинал
Навигация по главам: Присутствует


Автор рипа: Alex_A



World Art | MAL


Внимание!
— H.265/HEVC (High Efficiency Video Coding) — это новый стандарт кодирования видео.
— Стандарт H.265/HEVC является логическим продолжением стандарта H.264/AVC (Advanced Video Coding), и характеризуется более эффективными алгоритмами сжатия, а также поддержкой высокого разрешения вплоть до 8K UHD (8192×4320). Первая версия стандарта H.265 была опубликована в начале 2013 года.
— Рипы в фомате HEVC поддерживается не всеми аппаратными проигрывателями.
— Для корректного воспроизведения может потребоваться обновление ПО.
— Владельцам несовместимого железа просьба не беспокоить, есть альтернативные релизы.

Медиаинфо
Общее
Уникальный идентификатор : 204136366835751880092996807199640054922 (0x99933BF216DACDD08AC11656D908EC8A)
Полное имя : E:HEVCGhost in the Shell OVA 1Ghost.in.the.Shell.Stand.Alone.Complex.The.Laughing.Man.2005.1080p_HEVCCLUB.mkv
Формат : Matroska
Версия формата : Version 4 / Version 2
Размер файла : 6,32 Гбайт
Продолжительность : 2 ч. 40 м.
Режим общего битрейта : Переменный
Общий поток : 5644 Кбит/сек
Название фильма : Ghost in the Shell: Stand Alone Complex — The Laughing Man (2005) — HEVC.CLUB
Дата кодирования : UTC 2017-03-18 10:56:27
Программа кодирования : mkvmerge v9.9.0 ('Pick Up') 64bit
Библиотека кодирования : libebml v1.3.4 + libmatroska v1.4.5
Обложка : Yes
Attachments : cover.jpg

Видео
Идентификатор : 1
Формат : HEVC
Формат/Информация : High Efficiency Video Coding
Профиль формата : Main [email protected]@High
Идентификатор кодека : V_MPEGH/ISO/HEVC
Продолжительность : 2 ч. 40 м.
Битрейт : 1972 Кбит/сек
Ширина : 1920 пикселей
Высота : 1036 пикселей
Соотношение сторон : 1,85:1
Режим частоты кадров : Постоянный
Частота кадров : 29,970 (30000/1001) кадров/сек
Частота кадров в оригинале : 59,940 кадров/сек
Цветовое пространство : YUV
Субдискретизация насыщенности : 4:2:0
Битовая глубина : 10 бит
Бит/(Пиксели*Кадры) : 0.033
Размер потока : 2,21 Гбайт (35%)
Заголовок : HEVC.CLUB
Библиотека кодирования : x265 2.3+17-6e348252e902:[Windows][GCC 6.3.0][64 bit] 10bit
Настройки программы : cpuid=1173503 / frame-threads=3 / numa-pools=8 / wpp / no-pmode / no-pme / no-psnr / ssim / log-level=2 / input-csp=1 / input-res=1920×1036 / interlace=0 / total-frames=0 / level-idc=41 / high-tier=1 / uhd-bd=0 / ref=5 / no-allow-non-conformance / repeat-headers / annexb / aud / hrd / info / hash=0 / no-temporal-layers / open-gop / min-keyint=23 / keyint=250 / bframes=10 / b-adapt=2 / b-pyramid / bframe-bias=0 / rc-lookahead=60 / lookahead-slices=1 / scenecut=40 / no-intra-refresh / ctu=64 / min-cu-size=8 / no-rect / no-amp / max-tu-size=32 / tu-inter-depth=3 / tu-intra-depth=3 / limit-tu=0 / rdoq-level=1 / dynamic-rd=2.00 / signhide / no-tskip / nr-intra=0 / nr-inter=0 / no-constrained-intra / no-strong-intra-smoothing / max-merge=2 / limit-refs=3 / no-limit-modes / me=1 / subme=4 / merange=64 / temporal-mvp / weightp / weightb / no-analyze-src-pics / deblock=-3:-3 / no-sao / no-sao-non-deblock / rd=4 / no-early-skip / no-rskip / no-fast-intra / no-tskip-fast / no-cu-lossless / no-b-intra / rdpenalty=0 / psy-rd=1.60 / psy-rdoq=2.30 / no-rd-refine / analysis-mode=0 / no-lossless / cbqpoffs=0 / crqpoffs=0 / rc=crf / crf=22.0 / qcomp=1.00 / qpstep=6 / stats-write=0 / stats-read=0 / vbv-maxrate=50000 / vbv-bufsize=50000 / vbv-init=0.9 / crf-max=0.0 / crf-min=0.0 / ipratio=1.50 / pbratio=1.00 / aq-mode=1 / aq-strength=0.60 / no-cutree / zone-count=0 / no-strict-cbr / qg-size=32 / no-rc-grain / qpmax=69 / qpmin=0 / sar=1 / overscan=0 / videoformat=5 / range=0 / colorprim=2 / transfer=2 / colormatrix=1 / chromaloc=0 / display-window=0 / max-cll=0,0 / min-luma=0 / max-luma=1023 / log2-max-poc-lsb=8 / vui-timing-info / vui-hrd-info / slices=1 / opt-qp-pps / opt-ref-list-length-pps / no-multi-pass-opt-rps / scenecut-bias=0.05 / no-opt-cu-delta-qp / aq-motion / no-hdr / no-hdr-optrefine-level=5
Default : Да
Forced : Да
Цветовой диапазон : Limited
Коэффициенты матрицы : BT.709

Аудио #1
Идентификатор : 2
Формат : AC-3
Формат/Информация : Audio Coding 3
Расширение режима : CM (complete main)
Параметр Endianness формата : Big
Идентификатор кодека : A_AC3
Продолжительность : 2 ч. 40 м.
Вид битрейта : Постоянный
Битрейт : 448 Кбит/сек
Каналы : 6 каналов
Расположение каналов : Front: L C R, Side: L R, LFE
Частота : 48,0 КГц
Частота кадров : 31,250 кадров/сек (1536 spf)
Битовая глубина : 16 бит
Метод сжатия : С потерями
Размер потока : 514 Мбайт (8%)
Заголовок : VO [Cuba77]
Язык : Russian
Default : Да
Forced : Нет

Аудио #2
Идентификатор : 3
Формат : TrueHD
Идентификатор кодека : A_TRUEHD
Продолжительность : 2 ч. 40 м.
Вид битрейта : Переменный
Битрейт : 1557 Кбит/сек
Максимальный битрейт : 2970 Кбит/сек
Каналы : 6 каналов
Расположение каналов : Front: L C R, Side: L R, LFE
Частота : 48,0 КГц
Частота кадров : 1200,000 кадров/сек (40 spf)
Метод сжатия : Без потерь
Размер потока : 1,74 Гбайт (28%)
Заголовок : Dub
Язык : English
Default : Нет
Forced : Нет

Аудио #3
Идентификатор : 4
Формат : TrueHD
Идентификатор кодека : A_TRUEHD
Продолжительность : 2 ч. 40 м.
Вид битрейта : Переменный
Битрейт : 1534 Кбит/сек
Максимальный битрейт : 2970 Кбит/сек
Каналы : 6 каналов
Расположение каналов : Front: L C R, Side: L R, LFE
Частота : 48,0 КГц
Частота кадров : 1200,000 кадров/сек (40 spf)
Метод сжатия : Без потерь
Размер потока : 1,72 Гбайт (27%)
Заголовок : Original
Язык : Japanese
Default : Нет
Forced : Нет

Текст #1
Идентификатор : 5
Формат : ASS
Идентификатор кодека : S_TEXT/ASS
Идентификатор кодека/Информация : Advanced Sub Station Alpha
Продолжительность : 2 ч. 39 м.
Битрейт : 206 бит/сек
Count of elements : 2203
Метод сжатия : Без потерь
Размер потока : 242 Кбайт (0%)
Язык : Russian
Default : Нет
Forced : Нет

Текст #2
Идентификатор : 6
Формат : UTF-8
Идентификатор кодека : S_TEXT/UTF8
Идентификатор кодека/Информация : UTF-8 Plain Text
Продолжительность : 2 ч. 36 м.
Битрейт : 80 бит/сек
Count of elements : 2078
Размер потока : 92,1 Кбайт (0%)
Язык : English
Default : Нет
Forced : Нет

Меню
00:00:00.000 : en:00:00:00.000
00:01:59.953 : en:00:01:59.953
00:04:49.890 : en:00:04:49.890
00:08:48.828 : en:00:08:48.828
00:11:31.758 : en:00:11:31.758
00:16:13.472 : en:00:16:13.472
00:20:20.386 : en:00:20:20.386
00:24:45.684 : en:00:24:45.684
00:29:11.883 : en:00:29:11.883
00:42:37.054 : en:00:42:37.054
00:48:32.476 : en:00:48:32.476
00:53:33.877 : en:00:53:33.877
01:00:59.689 : en:01:00:59.689
01:03:59.936 : en:01:03:59.936
01:05:06.970 : en:01:05:06.970
01:07:09.392 : en:01:07:09.392
01:09:04.507 : en:01:09:04.507
01:10:45.174 : en:01:10:45.174
01:16:24.013 : en:01:16:24.013
01:18:26.101 : en:01:18:26.101
01:28:34.876 : en:01:28:34.876
01:31:23.278 : en:01:31:23.278
01:36:54.308 : en:01:36:54.308
01:40:14.542 : en:01:40:14.542
01:53:13.954 : en:01:53:13.954
01:56:17.437 : en:01:56:17.437
02:04:02.969 : en:02:04:02.969
02:06:18.404 : en:02:06:18.404
02:15:08.634 : en:02:15:08.634
02:19:53.986 : en:02:19:53.986
02:23:43.381 : en:02:23:43.381
02:28:10.381 : en:02:28:10.381
02:35:45.403 : en:02:35:45.403

Скриншоты

[/b]


Скачать Ghost.in.the.Shell.Stand.Alone.Complex.The.Laug.torrent

просмотры: 0

Post Comment