Драма Зарубежные фильмы

Последствия / Aftermath (2017) BDRip 720p от KinoGadget | iPad | Лицензия

Год выпуска: 2017
Оригинальное название: Aftermath
Страна: США
Жанр: триллер, драма
Возраст: 18+

Режиссер: Эллиотт Лестер

В ролях: Арнольд Шварценеггер, Мэгги Грэйс, Кевин Зегерс, Скут МакНэри, Ханна Уэр, Мариана Клавено, Гленн Моршауэр, Ларри Салливан, Мартин Донован, Мо

Описание: Ожидающий прилета своей семьи Роман узнает, что случилось непоправимое. Произошла авиакатастрофа и его любимые — жена и беременная дочь — погибли.

Потеряв тех, ради кого жил, он преследует единственную цель: посмотреть в глаза невольного убийцы и услышать слова сожаления. Более года поиска приводит Романа к авиадиспетчеру Джейку, управлявшему курсом самолета в момент катастрофы.

Продолжительность: 01:33:49
Перевод: Дублированный [Лицензия]
Оригинальная дорожка: нет

Автор рипа:

Качество видео: BDRip 720p Исходник: Blu-Ray Remux (1080p) Формат: mp4
Видео кодек: MPEG-4 AVC Аудио кодек: AAC
Видео: 1280×536 (2.40:1) at 24.000 fps, AVC at 1 956 kbps avg, 0.119 bit/pixel
Аудио №1 Rus: 48.0 KHz, AAC, 2 ch, 128.0 Kbps
Субтитры: нет
Навигация по главам: есть
Размер: 1.37 GiB

Log x264
avs [info]: 1280x536p 1:1 @ 24/1 fps (cfr)
x264 [info]: using SAR=1/1
x264 [info]: using cpu capabilities: MMX2 SSE2Fast SSSE3 Cache64
x264 [info]: profile High, level 4.1
x264 [info]: frame I:947 Avg QP:13.77 size: 79210
x264 [info]: frame P:25646 Avg QP:17.15 size: 24205
x264 [info]: frame B:108522 Avg QP:18.92 size: 6272
x264 [info]: consecutive B-frames: 1.3% 1.1% 2.9% 14.6% 18.6% 38.9% 14.9% 2.8% 4.9%
x264 [info]: mb I I16..4: 10.4% 73.8% 15.8%
x264 [info]: mb P I16..4: 1.4% 6.6% 0.8% P16..4: 44.8% 24.2% 13.5% 0.0% 0.0% skip: 8.6%
x264 [info]: mb B I16..4: 0.1% 0.4% 0.0% B16..8: 39.9% 6.2% 1.1% direct: 5.4% skip:47.0% L0:44.6% L1:48.8% BI: 6.6%
x264 [info]: 8×8 transform intra:74.8% inter:67.0%
x264 [info]: coded y,uvDC,uvAC intra: 74.2% 79.3% 48.0% inter: 19.2% 25.3% 1.8%
x264 [info]: i16 v,h,dc,p: 36% 16% 5% 42%
x264 [info]: i8 v,h,dc,ddl,ddr,vr,hd,vl,hu: 22% 15% 20% 5% 8% 8% 7% 7% 7%
x264 [info]: i4 v,h,dc,ddl,ddr,vr,hd,vl,hu: 26% 19% 12% 5% 9% 9% 8% 6% 5%
x264 [info]: i8c dc,h,v,p: 51% 20% 21% 8%
x264 [info]: Weighted P-Frames: Y:5.5% UV:2.1%
x264 [info]: ref P L0: 47.1% 11.1% 17.7% 7.0% 6.0% 4.5% 4.1% 2.4% 0.1% 0.0%
x264 [info]: ref B L0: 71.8% 12.3% 7.2% 3.5% 2.8% 1.7% 0.5%
x264 [info]: ref B L1: 93.1% 6.9%
x264 [info]: kb/s:1955.91
encoded 135115 frames, 2.85 fps, 1955.91 kb/s

MI
General
Complete name : …Posledstviya_2017_KinoGadget.mp4
Format : MPEG-4
Format profile : Base Media
Codec ID : isom (isom)
File size : 1.37 GiB
Duration : 1 h 33 min
Overall bit rate mode : Variable
Overall bit rate : 2 091 kb/s
Movie name : Последствия | KinoGadget
Performer : Эллиотт Лестер
Director : Эллиотт Лестер
Actor : Арнольд Шварценеггер / Мэгги Грэйс / Кевин Зегерс / Скут МакНэри / Ханна Уэр / Мариана Клавено / Гленн Моршауэр / Ларри Салливан / Мартин Донован / Мо
Screenplay by : Хавьер Гульон
Producer : Даррен Аронофски / Рэндолл Эмметт
Genre : Drama, Thriller
ContentType : Short Film
Recorded date : 2017
Encoded date : UTC 2017-06-12 08:41:13
Tagged date : UTC 2017-06-12 09:51:06
Cover : Yes
ContentRating : mpaa|R|400|
LongDeion : Ожидающий прилета своей семьи Роман узнает, что случилось непоправимое. Произошла авиакатастрофа и его любимые — жена и беременная дочь — погибли. / / Потеряв тех, ради кого жил, он преследует единственную цель: посмотреть в глаза невольного убийцы и услышать слова сожаления. Более года поиска приводит Романа к авиадиспетчеру Джейку, управлявшему курсом самолета в момент катастрофы.
HDVideo : Yes

Video
ID : 1
Format : AVC
Format/Info : Advanced Video Codec
Format profile : [email protected]
Format settings, CABAC : Yes
Format settings, ReFrames : 8 frames
Codec ID : avc1
Codec ID/Info : Advanced Video Coding
Duration : 1 h 33 min
Bit rate : 1 956 kb/s
Maximum bit rate : 16.2 Mb/s
Width : 1 280 pixels
Height : 536 pixels
Display aspect ratio : 2.40:1
Frame rate mode : Constant
Frame rate : 24.000 FPS
Color space : YUV
Chroma subsampling : 4:2:0
Bit depth : 8 bits
Scan type : Progressive
Bits/(Pixel*Frame) : 0.119
Stream size : 1.28 GiB (94%)
Writing library : x264 core 148 r2744 b97ae06
Encoding settings : cabac=1 / ref=8 / deblock=1:-1:-1 / analyse=0x3:0x113 / me=umh / subme=7 / psy=1 / psy_rd=1.00:0.00 / mixed_ref=1 / me_range=32 / chroma_me=1 / trellis=2 / 8x8dct=1 / cqm=0 / deadzone=21,11 / fast_pskip=0 / chroma_qp_offset=-2 / threads=3 / lookahead_threads=1 / sliced_threads=0 / nr=0 / decimate=1 / interlaced=0 / bluray_compat=0 / constrained_intra=0 / bframes=8 / b_pyramid=2 / b_adapt=2 / b_bias=0 / direct=1 / weightb=1 / open_gop=0 / weightp=2 / keyint=250 / keyint_min=25 / scenecut=40 / intra_refresh=0 / rc_lookahead=60 / rc=crf / mbtree=1 / crf=18.0 / qcomp=0.60 / qpmin=0 / qpmax=69 / qpstep=4 / vbv_maxrate=62500 / vbv_bufsize=78125 / crf_max=0.0 / nal_hrd=none / filler=0 / ip_ratio=1.40 / aq=1:1.00
Encoded date : UTC 2017-06-11 22:42:45
Tagged date : UTC 2017-06-12 08:41:49

Audio
ID : 2
Format : AAC
Format/Info : Advanced Audio Codec
Format profile : LC
Codec ID : 40
Duration : 1 h 33 min
Bit rate mode : Variable
Bit rate : 128 kb/s
Maximum bit rate : 134 kb/s
Channel(s) : 2 channels
Channel positions : Front: L R
Sampling rate : 48.0 kHz
Frame rate : 46.875 FPS (1024 spf)
Compression mode : Lossy
Stream size : 85.9 MiB (6%)
Language : Russian
Encoded date : UTC 2017-06-11 22:54:37
Tagged date : UTC 2017-06-12 08:41:49

Menu
00:00:00.000 : 1
00:01:14.000 : 2
00:10:56.000 : 3
00:22:51.000 : 4
00:33:46.000 : 5
00:42:42.000 : 6
00:54:19.000 : 7
01:03:37.000 : 8
01:13:49.000 : 9
01:27:54.000 : 10

Скриншоты

Данный рип предназначен для просмотра на мобильных гаджетах с поддержкой формата mp4


Скачать Posledstviya_2017_KinoGadget.mp4.torrent

просмотры: 2

Post Comment