Аниме

Может, я встречу тебя в подземелье? Меч Оратории / Danmachi Gaiden: Sword Oratoria [01-04 из 12] (2017) HDTVRip 720p | SHIZA Project

Информация о фильме
Название: Может, я встречу тебя в подземелье? Меч Оратории
Оригинальное название: Danmachi Gaiden: Sword Oratoria
Год выхода: 2017
Жанр: приключения, фэнтези, этти
Режиссер: Судзуки Ёхэй
Художник: Мидзутани Тосихару, Окумура Ясухиро
В ролях: Ониси Саори, Кимура Дзюри, Муракава Риэ, Такахаси Минами, Кубо Юрика, Тамура Муцуми, Кавасуми Аяко, Номура Кэндзи, Окамото Нобухико, Мацуока Ёсицугу, Минасэ Инори
О фильме:
Спин-офф аниме-сериала «Может, я встречу тебя в подземелье?», главной героиней которого является одна из самых сильнейших мечниц города Орарио — Айз Валенштайн, известная среди всех также как «Принцесса меча».История начинается, когда Айз вместе со своими союзниками отправляется в огромный лабиринт, известный как «Подземелье». Вместе они отправляются на пятидесятый уровень, на котором обитают различный неведомые создания, наподобие трупа разлагающегося дракона и многого другого. На том уровне она встречает юношу, которому требуется помощь. Тут, в этих лабиринтах города Орарио и пересекаются истории девушки и юноши.

World Art | MAL

Страна: Япония
Студия: J.C. Staff
Продолжительность: 00:24:00
Язык: Русский, Японский
Перевод: Любительский (многоголосый, закадровый)

Файл
Качество: HDTVRip
Формат: MKV
Кодек: H.264
Аудио кодек: AAC
Видео: 1280×720, 23.976 fps, 3000 kbps
Аудио RUS: 48.0 kHz, AAC, 2 ch, 192 kbps — SHIZA Project
Аудио JAP: 48.0 kHz, AAC, 2 ch, 192 kbps
Субтитры: русские (встроенные полный перевод, ASS) — YakuSub Studio

Релиз от:
Озвучивание: nDrOiDze, Dancel, Abe, Лизавета
Перевод: Sovet Romantica
Тайминг и работа со звуком: CaypoH

Скриншоты

Список серий
01. Мечница и эльфийка
02. Поход за покупками
03. Фестиваль и храбрость
04. Убийца и драгоценный камень

MediaInfo
General
Format : Matroska
Format version : Version 4 / Version 2
File size : 576 MiB
Duration : 24 min
Overall bit rate : 3 352 kb/s
Encoded date : UTC 2017-05-14 12:59:53
Writing application : mkvmerge v8.3.0 ('Over the Horizon') 64bit
Writing library : libebml v1.3.1 + libmatroska v1.4.2

Video
ID : 1
Format : AVC
Format/Info : Advanced Video Codec
Format profile : [email protected]
Format settings, CABAC : Yes
Format settings, ReFrames : 4 frames
Codec ID : V_MPEG4/ISO/AVC
Duration : 23 min
Bit rate : 2 967 kb/s
Width : 1 280 pixels
Height : 720 pixels
Display aspect ratio : 16:9
Frame rate mode : Constant
Frame rate : 23.976 (24000/1001) FPS
Color space : YUV
Chroma subsampling : 4:2:0
Bit depth : 8 bits
Scan type : Progressive
Bits/(Pixel*Frame) : 0.134
Stream size : 509 MiB (88%)
Writing library : x264 core 129 r2245+729M 1a52e03
Encoding settings : cabac=1 / ref=4 / deblock=1:1:-1 / analyse=0x3:0x113 / me=umh / subme=9 / psy=1 / fade_compensate=0.00 / psy_rd=1.00:0.00 / mixed_ref=1 / me_range=24 / chroma_me=1 / trellis=2 / 8x8dct=1 / cqm=0 / deadzone=21,11 / fast_pskip=1 / chroma_qp_offset=-2 / threads=8 / lookahead_threads=1 / sliced_threads=0 / nr=0 / decimate=1 / interlaced=0 / bluray_compat=0 / constrained_intra=0 / fgo=0 / bframes=9 / b_pyramid=2 / b_adapt=2 / b_bias=0 / direct=1 / weightb=1 / open_gop=0 / weightp=2 / keyint=240 / keyint_min=24 / scenecut=40 / intra_refresh=0 / rc=crf / mbtree=0 / crf=17.5 / qcomp=0.72 / qpmin=0 / qpmax=69 / qpstep=4 / ip_ratio=1.40 / pb_ratio=1.30 / aq=1:0.85
Default : Yes
Forced : No
Color range : Limited
Color primaries : BT.709
Transfer characteristics : BT.709
Matrix coefficients : BT.709

Audio #1
ID : 2
Format : AAC
Format/Info : Advanced Audio Codec
Format profile : LC
Codec ID : A_AAC
Duration : 24 min
Bit rate : 192 kb/s
Channel(s) : 2 channels
Channel positions : Front: L R
Sampling rate : 48.0 kHz
Frame rate : 46.875 FPS (1024 spf)
Compression mode : Lossy
Delay relative to video : 9 ms
Stream size : 33.0 MiB (6%)
Title : SHIZA Project
Language : Russian
Default : Yes
Forced : No

Audio #2
ID : 3
Format : AAC
Format/Info : Advanced Audio Codec
Format profile : LC
Codec ID : A_AAC
Duration : 23 min
Bit rate : 192 kb/s
Channel(s) : 2 channels
Channel positions : Front: L R
Sampling rate : 48.0 kHz
Frame rate : 46.875 FPS (1024 spf)
Compression mode : Lossy
Stream size : 33.0 MiB (6%)
Title : Original
Language : Japanese
Default : No
Forced : No

Text #1
ID : 4
Format : ASS
Codec ID : S_TEXT/ASS
Codec ID/Info : Advanced Sub Station Alpha
Duration : 21 min
Bit rate : 5 b/s
Count of elements : 9
Compression mode : Lossless
Stream size : 980 Bytes (0%)
Title : Надписи
Language : Russian
Default : Yes
Forced : No

Text #2
ID : 5
Format : ASS
Codec ID : S_TEXT/ASS
Codec ID/Info : Advanced Sub Station Alpha
Duration : 23 min
Bit rate : 135 b/s
Count of elements : 298
Compression mode : Lossless
Stream size : 23.7 KiB (0%)
Title : Полные субтитры
Language : Russian
Default : No
Forced : No

Раздача ведется путем добавления новых серий
Когда раздача ведётся путём добавления новых серий, при каждом добавлении создётся новый торрент. Чтобы начать докачку новой серии, пользователям необходимо сделать следующее:
(1) остановить скачивание,
(2) удалить старый торрент у себя из клиента (старые серии удалять не надо),
(3) скачать новый торрент и запустить его у себя в клиенте вместо старого, при этом указать клиенту путь в старую папку, куда и должно происходить скачивание новых серий.
Ваш клиент при этом должен произвести хеширование (проверку) старой папки (если не производит сам — помогите ему сделать это), и будет докачивать только те серии, которых у вас ещё нет. Старые серии при этом не удаляются, а продолжают раздаваться!
Eсли вы уже удалили старые серии, то предотвратить повторную закачку старых серий можно, отжав галочку в соответсвующих местах при запуске нового торрента. По возможности, желательно не удалять старые серии как можно дольше, чтобы релизёр не столько продолжал раздавать старые серии, а смог сконцентрироваться на новых.


Скачать Danmachi_Gaiden_-_Sword_Oratoria_TV2_HDTVRip_72.torrent

просмотры: 3

Post Comment