Аниме

Кобаяcи и её горничная-дракон / Kobayashi-san Chi no Maid Dragon [S01] (2017) HDTVRip 720p | AniDub

Информация о фильме
Название: Кобаяcи и её горничная-дракон
Оригинальное название: Kobayashi-san Chi no Maid Dragon
Год выхода: 2017
Жанр: комедия, повседневность
Режиссер: Такэмото Ясухиро
Художник: Ватанабэ Микико, Ватанабэ Микико
В ролях: Тамура Муцуми, Кувахара Юки, Наганава Мария, Такада Юки, Такахаси Минами, Оно Дайсукэ, Накамура Юйти, Като Эмири, Гото Юко, Исихара Каори
О фильме:
Одинокая Кобаяси-сан любит по вечерам после тяжелой работы пропустить стаканчик пива и поговорить о милых горничных. Однажды она была настолько одинока, что завела беседу с незнакомкой (размер огромный, цвет зеленый, крылья присутствуют). Слово за слово, выяснилось, что незнакомка тоже одинока, и Кобаяси пригласила ее пожить у себя (естественно, в роли горничной!). Наутро действие алкоголя кончилось, а вот незнакомка осталась, и оказалось, что она не только ужасно невоспитанная горничная, но еще и… дракон!
П. С. И друзья у нее — драконы!


World Art | MAL

Страна: Япония
Студия: Kyoto Animation & Animation Do
Продолжительность: 00:24:00
Язык: Русский, Японский
Перевод: Любительский (многоголосый, закадровый)

Файл
Качество: HDTVRip
Формат: MKV
Кодек: H.264
Аудио кодек: AAC
Видео: 1280×720, 23.976 fps, 2800 kbps
Аудио RUS: 48.0 kHz, AAC, 2 ch, 192 kbps — AniDub
Аудио JAP: 48.0 kHz, AAC, 2 ch, 192 kbps
Субтитры: русские (встроенные полный перевод, ASS) — YakuSub Studio

Релиз от:
Озвучивание: Студийная Банда AD
Перевод: FooBoo
Тайминг и работа со звуком: NeSqUiK

Скриншоты

Список серий
01. Знакомство с Тору!
02. Второй дракон — Канна!
03. Начало новой жизни!
04. Канна идет в школу!
05. Тору познает реальный мир!
06. Домашний визит!
07. Лето в разгаре!
08. Новый дракон Эльма!
09. Спортивный фестиваль!
10. Дракон, на сцену!
11. Конец года, Новый год!
12. Удачная встреча Тору и Кобаяши
13. Император Погибели прибыл!

MediaInfo
General
Format : Matroska
Format version : Version 4 / Version 2
File size : 543 MiB
Duration : 23 min
Overall bit rate : 3 163 kb/s
Encoded date : UTC 2017-04-14 15:37:38
Writing application : mkvmerge v8.3.0 ('Over the Horizon') 64bit
Writing library : libebml v1.3.1 + libmatroska v1.4.2

Video
ID : 1
Format : AVC
Format/Info : Advanced Video Codec
Format profile : [email protected]
Format settings, CABAC : Yes
Format settings, ReFrames : 4 frames
Codec ID : V_MPEG4/ISO/AVC
Duration : 23 min
Bit rate : 2 804 kb/s
Width : 1 280 pixels
Height : 720 pixels
Display aspect ratio : 16:9
Frame rate mode : Constant
Frame rate : 23.976 (24000/1001) FPS
Color space : YUV
Chroma subsampling : 4:2:0
Bit depth : 8 bits
Scan type : Progressive
Bits/(Pixel*Frame) : 0.127
Stream size : 481 MiB (89%)
Writing library : x264 core 129 r2245+729M 1a52e03
Encoding settings : cabac=1 / ref=4 / deblock=1:1:-1 / analyse=0x3:0x113 / me=umh / subme=9 / psy=1 / fade_compensate=0.00 / psy_rd=1.00:0.00 / mixed_ref=1 / me_range=24 / chroma_me=1 / trellis=2 / 8x8dct=1 / cqm=0 / deadzone=21,11 / fast_pskip=1 / chroma_qp_offset=-2 / threads=8 / lookahead_threads=1 / sliced_threads=0 / nr=0 / decimate=1 / interlaced=0 / bluray_compat=0 / constrained_intra=0 / fgo=0 / bframes=9 / b_pyramid=2 / b_adapt=2 / b_bias=0 / direct=1 / weightb=1 / open_gop=0 / weightp=2 / keyint=240 / keyint_min=24 / scenecut=40 / intra_refresh=0 / rc=crf / mbtree=0 / crf=18.5 / qcomp=0.72 / qpmin=0 / qpmax=69 / qpstep=4 / ip_ratio=1.40 / pb_ratio=1.30 / aq=1:0.85
Default : Yes
Forced : No
Color range : Limited
Color primaries : BT.709
Transfer characteristics : BT.709
Matrix coefficients : BT.709

Audio #1
ID : 2
Format : AAC
Format/Info : Advanced Audio Codec
Format profile : LC
Codec ID : A_AAC
Duration : 23 min
Bit rate : 165 kb/s
Channel(s) : 2 channels
Channel positions : Front: L R
Sampling rate : 48.0 kHz
Frame rate : 46.875 FPS (1024 spf)
Compression mode : Lossy
Stream size : 28.4 MiB (5%)
Title : AniDub
Language : Russian
Default : Yes
Forced : No

Audio #2
ID : 3
Format : AAC
Format/Info : Advanced Audio Codec
Format profile : LC
Codec ID : A_AAC
Duration : 23 min
Bit rate : 192 kb/s
Channel(s) : 2 channels
Channel positions : Front: L R
Sampling rate : 48.0 kHz
Frame rate : 46.875 FPS (1024 spf)
Compression mode : Lossy
Stream size : 32.8 MiB (6%)
Title : Original
Language : Japanese
Default : No
Forced : No

Text
ID : 4
Format : ASS
Codec ID : S_TEXT/ASS
Codec ID/Info : Advanced Sub Station Alpha
Duration : 23 min
Bit rate : 270 b/s
Count of elements : 503
Compression mode : Lossless
Stream size : 45.7 KiB (0%)
Title : Полные субтитры
Language : Russian
Default : Yes
Forced : No


Скачать Kobayashi-san_Chi_no_Maid_Dragon_TV_HDTVRip_720.torrent

просмотры: 4

Post Comment