Детский Зарубежные фильмы

Большой и добрый великан / The BFG (2016) DVD9 | Custom

«Если твой друг великан, тебя ждут великие дела»

Год выпуска: 2016
Производство: Великобритания, Канада, США / Walt Disney Pictures, Amblin Entertainment, Reliance Entertainment, Walden Media
Жанр: Фэнтези, приключения, семейный

Режиссер: Стивен Спилберг
Продюсеры: Фрэнк Маршалл, Сэм Мерсер, Стивен Спилберг
Актеры: Марк Райлэнс, Руби Барнхилл, Пенелопа Уилтон, Джемейн Клемент, Ребекка Холл, Рейф Сполл, Билл Хейдер, Оулавюр Дарри Оулафссон, Адам Годли, Майкл Адамуэйт

Описание:
В центре истории девочка по имени Софи, которая не смогла заснуть до полуночи и в окошко увидела огромного великана, который подходил к соседним домам и начинал дуть в окна спален. В полном соответствии со старинными поверьями и детскими страшилками, великан увидел Софи и унес к себе домой, в страну великанов.

Как оказалось, он в этой самой стране был единственным добрым великаном: действуя в обстановке строжайшей секретности, он коллекционировал хорошие сны, которые по ночам раздавал детям. Уши у него устроены таким образом, что он слышит, что и о чем снится ребятам, и никогда не позволяет им видеть кошмары.

Перевод: Дублированный
Субтитры: Английские, русские


Дата мировой премьеры: 14 мая 2016
Дата российской премьеры: 30 июня 2016, «WDSSPR»
Дата выхода DVD релиза: 27 сентября 2016, «Уолт Дисней Компани СНГ»


Продолжительность: 01:57:31
Качество видео: DVD9

Видео: MPEG-2, 720×[email protected]×480 (NTSC 16:9), ~6200 Кбит/сек
Аудио 1: AC3 5.1, 448 Кбит/сек [Английский — оригинал]
Аудио 2: AC3 2.0, 192 Кбит/сек [Английский — описательный]
Аудио 3: AC3 5.1, 448 Кбит/сек [Русский — дублированный]

Доп. материалы: Замечательные словечки, Памяти Мелиссы Мэтисон, Ролик

DVDInfo:
Title: The BFG (2016) DVD9 NTSC
Size: 6.39 Gb ( 6 696 264,00 KBytes ) — DVD-9
Enabled regions: 1, 2, 3, 4, 5, 6, 7, 8

VTS_01 :
Play Length: 00:00:00
Video: NTSC 16:9 (720×480) VBR, Auto Pan&Scan
Audio:
Not specified (Dolby AC3, 2 ch)
Not specified (Dolby AC3, 2 ch)
Not specified (Dolby AC3, 2 ch)
Not specified (Dolby AC3, 2 ch)
Not specified (Dolby AC3, 2 ch)
Not specified (Dolby AC3, 2 ch)
Not specified (Dolby AC3, 2 ch)
Not specified (Dolby AC3, 2 ch)
Subtitles:
Not specified
Not specified
Not specified
Not specified
Not specified
Not specified
Not specified
Not specified
Not specified
Not specified
Not specified
Not specified

VTS_02 :
Play Length: 00:00:22
Video: NTSC 16:9 (720×480) VBR, Auto Letterboxed
Audio:
English (Dolby AC3, 6 ch)

VTS_03 :
Play Length: 01:57:31
Video: NTSC 16:9 (720×480) VBR, Auto Letterboxed
Audio:
English (Dolby AC3, 6 ch)
English (Dolby AC3, 2 ch)
Russian (Dolby AC3, 6 ch)
Subtitles:
English
Russian
Russian

VTS_04 :
Play Length: 00:00:01
Video: NTSC 16:9 (720×480) VBR, Auto Letterboxed

VTS_05 :
Play Length: 00:00:02+00:00:02+00:00:30
Video: NTSC 16:9 (720×480) VBR, Auto Pan&Scan

VTS_06 :
Play Length: 00:03:16+00:05:54
Video: NTSC 16:9 (720×480) VBR, Auto Letterboxed
Audio:
English (Dolby AC3, 2 ch)
Subtitles:
English
Russian

VTS_07 :
Play Length: 00:01:45+00:01:38+00:00:00+00:01:38+00:00:00+00:00:00
Video: NTSC 16:9 (720×480) VBR, Auto Letterboxed
Audio:
English (Dolby AC3, 6 ch)

* Menus Information *

VIDEO_TS Menu
Video:
NTSC 16:9 (720×480) VBR
Auto Pan&Scan
Audio:
Not specified (Dolby AC3, 2 ch)
English Language Unit :
Title Menu

VTS_01 Menu
Video:
NTSC 4:3 (720×480) VBR
Auto Pan&Scan, Auto Letterboxed
English Language Unit :
Root Menu

VTS_02 Menu
Video:
NTSC 16:9 (720×480) VBR
Auto Pan&Scan
English Language Unit :
Root Menu
Audio Menu
Angle menu
Chapter (PTT) Menu

VTS_03 Menu
Video:
NTSC 4:3 (720×480) VBR
Auto Pan&Scan, Auto Letterboxed
English Language Unit :
Root Menu
Angle menu

VTS_04 Menu
Video:
NTSC 16:9 (720×480) VBR
Auto Pan&Scan
Audio:
Not specified (Dolby AC3, 2 ch)
English Language Unit :
Root Menu
Angle menu

VTS_05 Menu
Video:
NTSC 16:9 (720×480) VBR
Auto Pan&Scan
English Language Unit :
Root Menu
Angle menu

VTS_06 Menu
Video:
NTSC 4:3 (720×480) VBR
Auto Pan&Scan, Auto Letterboxed
English Language Unit :
Root Menu

VTS_07 Menu
Video:
NTSC 4:3 (720×480) VBR
Auto Pan&Scan, Auto Letterboxed
English Language Unit :
Root Menu
MediaInfo:
Общее
Полное имя : F:ВидеоThe BFG (2016) DVD9 NTSCVIDEO_TSVTS_03_1.VOB
Формат : MPEG-PS
Размер файла : 1024 Мбайт
Продолжительность : 19 м.
Режим общего битрейта : Переменный
Общий поток : 7441 Кбит/сек

Видео
Идентификатор : 224 (0xE0)
Формат : MPEG Video
Версия формата : Version 2
Профиль формата : [email protected]
Параметр BVOP формата : Да
Параметр матрицы формата : Выборочная
Параметр GOP формата : Variable
Продолжительность : 19 м.
Вид битрейта : Переменный
Битрейт : 6205 Кбит/сек
Максимальный битрейт : 9800 Кбит/сек
Ширина : 720 пикселей
Высота : 480 пикселей
Соотношение сторон : 16:9
Частота кадров : 23,976 (24000/1001) кадра/сек
Стандарт вещания : Component
Цветовое пространство : YUV
Субдискретизация насыщенности : 4:2:0
Битовая глубина : 8 бит
Тип развёртки : Прогрессивная
Порядок развёртки : 2:3 Pulldown
Метод сжатия : С потерями
Бит/(Пиксели*Кадры) : 0.749
Временной код первого кадра : 00:59:59;00
Оригинал временного кода : Group of pictures header
Размер потока : 854 Мбайт (83%)
Основные цвета : BT.601 NTSC
Характеристики трансфера : BT.601
Коэффициенты матрицы : BT.601

Аудио #1
Идентификатор : 189 (0xBD)-128 (0x80)
Формат : AC-3
Формат/Информация : Audio Coding 3
Расширение режима : CM (complete main)
Параметр Endianness формата : Big
Режим смешивания : DVD-Video
Продолжительность : 19 м.
Вид битрейта : Постоянный
Битрейт : 448 Кбит/сек
Каналы : 6 каналов
Расположение каналов : Front: L C R, Side: L R, LFE
Частота : 48,0 КГц
Частота кадров : 31,250 кадров/сек (1536 spf)
Метод сжатия : С потерями
Размер потока : 61,6 Мбайт (6%)

Аудио #2
Идентификатор : 189 (0xBD)-129 (0x81)
Формат : AC-3
Формат/Информация : Audio Coding 3
Профиль формата : Dolby Digital
Расширение режима : CM (complete main)
Параметр Endianness формата : Big
Режим смешивания : DVD-Video
Продолжительность : 19 м.
Вид битрейта : Постоянный
Битрейт : 192 Кбит/сек
Каналы : 2 канала
Расположение каналов : Front: L R
Частота : 48,0 КГц
Частота кадров : 31,250 кадров/сек (1536 spf)
Метод сжатия : С потерями
Размер потока : 26,4 Мбайт (3%)

Аудио #3
Идентификатор : 189 (0xBD)-130 (0x82)
Формат : AC-3
Формат/Информация : Audio Coding 3
Расширение режима : CM (complete main)
Параметр Endianness формата : Big
Режим смешивания : DVD-Video
Продолжительность : 19 м.
Вид битрейта : Постоянный
Битрейт : 448 Кбит/сек
Каналы : 6 каналов
Расположение каналов : Front: L C R, Side: L R, LFE
Частота : 48,0 КГц
Частота кадров : 31,250 кадров/сек (1536 spf)
Метод сжатия : С потерями
Размер потока : 61,6 Мбайт (6%)

Текст #1
Идентификатор : 189 (0xBD)-32 (0x20)
Формат : RLE
Формат/Информация : Run-length encoding
Режим смешивания : DVD-Video
Продолжительность : 19 м.

Текст #2
Идентификатор : 224 (0xE0)-CC3
Формат : EIA-608
Режим смешивания, доп. информация : Muxed in Video #1
Продолжительность : 19 м.
Вид битрейта : Постоянный
Размер потока : 0,00 байт (0%)

Текст #3
Идентификатор : 189 (0xBD)-33 (0x21)
Формат : RLE
Формат/Информация : Run-length encoding
Режим смешивания : DVD-Video

Меню
Продолжительность : 19 м.

Доп. информация:
Исходником послужил лицензионный DVD9 из-за рубежа. Французскую звуковую дорожку заменил на русскую вместе с субтитрами. Испанскую дорогу удалил.
Предупреждающие надписи скрыл.
Доп. материалы переведены русскими субтитрами.
Использовались программы: MKVExtractGUI2, UsEac3to, Sony Vegas, PgcDemux, DVD ReMake Pro, Adobe PhotoShop, MuxMan, MaestroSBT, SubtitleEdit, DVDSubEdit.
Скриншоты меню:


Скриншоты:


Скачать The_BFG_2016_DVD9_NTSC.torrent

просмотры: 4

Post Comment