Аниме

Вороны: Бойцы старшей школы / Koukou Butouden Crows [02 из 02] (1994) VHSRip | L1


Информация о фильме
Название: Вороны: Бойцы старшей школы
Оригинальное название: Koukou Butouden Crows
Год выхода: 1994
Жанр: приключения, комедия, драма
Автор оригинала: Такахаси Хироси
Режиссер: Отиай Масамунэ
В ролях: Угаки Хидэнари, Яо Кадзуки, Ямагути Каппэй, Морикава Тосиюки, Цудзитани Кодзи, Косуги Дзюрота, О ц у к а Акио
О фильме:
В этой школе учатся грубые парни. Злые парни. Одинокие парни.
Здесь ценятся только сила, мужество и способность побеждать. Учеба «воронов» – это совершенствование навыков уличной драки, бессмысленной, беспощадной и бескомпромиссной.
Бойа Харумити этого не знал, когда переводился. Но, узнав, не огорчился. Он «силен, как демон» (с),у него крашеные волосы и неукротимый дух. Шайка Бандо ему не страшна. Его огорчает только то, что одноклассник Ясуо никак не хочет познакомить его со своей хорошенькой сестренкой!.. © Анастасия Розанова

Страна: Япония
Студия: Knack
Продолжительность: 01:15:00
Перевод: Любительский одноголосный закадровый [L1]
Файл
Кодек: DivX5
Качество: VHSRip Автор рипа: BBF (Bowling Ball Fansubs)
Видео: 640×480, 8 бит, 1500 кбит/сек, 29.970 кадров/сек
Звук:
MP3, 128 кбит/сек, 48.0 кГц, 2 канала Язык Русский (в составе контейнера) ; Озвучка мужск. одноголосная: Smit, работа со звуком Smit
MP3, 112 кбит/сек, 48.0 кГц, 2 канала Язык Японский
Субтитры:
ASS, внешние, надписи; Язык субтитров русский ; Перевод: Maria Корректор: m1ppy Тайминг: Mirukuti Оформление: m1ppy
ASS, внешние, полные; Язык субтитров русский ; Перевод: Maria Корректор: m1ppy Тайминг: Mirukuti Оформление: m1ppy
Семпл

Список эпизодов
1. ОВА 1
2. ОВА 2
avdump
File:[AniFilm] Koukou Butouden Crows — 1 [VHSRip 480p DivX5][Smit].avi
Duration: 00:44:17 (2657.19)
Track #1: video
lang: Unknown (1)
codc: DX50 (DivX503b1977p) -> DivX5/6 (7)
reso: 640×480 -> 4:3
fram: 29.97 fps
rate: 1500 kbps (1500.33)
dura: 00:44:17 (2657.19)
size: 475.25 MB (498331973)
Track #2: audio (Smit | AniFilm)
lang: Unknown (1)
codc: MPEG-1A L3 -> MP3 CBR (5)
chan: 2 -> Stereo
samp: 44100 Hz
rate: 128 kbps (128.00)
dura: 00:44:17 (2657.19)
size: 40.55 MB (42515006)
Track #3: audio (Original)
lang: Unknown (1)
codc: MPEG-1A L3 -> MP3 CBR (5)
chan: 2 -> Stereo
samp: 44100 Hz
rate: 112 kbps (112.00)
dura: 00:44:17 (2657.19)
size: 35.48 MB (37200630)
Sizes: (check sanity)
disk: 556.85 MB (583899136)
trac: 551.27 MB (578047609) [based on track size]
bitr: 551.27 MB (578047555) [based on bitrate]
tdif: 5.58 MB (5851527) 1.00%
bdif: 5.58 MB (5851580) 1.00%
MediaInfo
Общее
Полное имя : [AniFilm] Koukou Butouden Crows — 1 [VHSRip 480p DivX5][Smit].avi
Формат : AVI
Формат/Информация : Audio Video Interleave
Размер файла : 557 Мбайт
Продолжительность : 44 м. 17 с.
Общий поток : 1758 кбит/сек
Программа кодирования : VirtualDubModRus 1.5.10.2 (build 2542/release)
Библиотека кодирования : VirtualDubMod build 2542/release

Видео
Идентификатор : 0
Формат : MPEG-4 Visual
Параметр BVOP формата : 1
Параметр QPel формата : Нет
Параметр GMC формата : Без точки перехода
Параметр матрицы формата : Default (H.263)
Режим смешивания : Сжатый битовый поток
Идентификатор кодека : DX50
Идентификатор кодека/Подсказка : DivX 5
Продолжительность : 44 м. 17 с.
Битрейт : 1500 кбит/сек
Номинальный битрейт : 4000 кбит/сек
Ширина : 640 пикселей
Высота : 480 пикселей
Соотношение сторон : 4:3
Частота кадров : 29,970 (30000/1001) кадров/сек
Цветовое пространство : YUV
Субдискретизация насыщенности : 4:2:0
Битовая глубина : 8 бит
Тип развёртки : Прогрессивная
Метод сжатия : С потерями
Бит/(Пиксели*Кадры) : 0.163
Размер потока : 475 Мбайт (85%)
Библиотека кодирования : DivX 6.2.5 (UTC 2006-06-16)

Аудио #1
Идентификатор : 1
Формат : MPEG Audio
Версия формата : Version 1
Профиль формата : Layer 3
Режим : Joint stereo
Расширение режима : MS Stereo
Идентификатор кодека : 55
Идентификатор кодека/Подсказка : MP3
Продолжительность : 44 м. 17 с.
Вид битрейта : Постоянный
Битрейт : 128 кбит/сек
Каналы : 2 канала
Частота : 44,1 кГц
Метод сжатия : С потерями
Размер потока : 40,5 Мбайт (7%)
Выравнивание : Разделение по промежуткам
Продолжительность промежутка : 33 мс. (1,00 видеокадр)
Время предзагрузки промежутка : 500 мс.
Заголовок : Smit | AniFilm

Аудио #2
Идентификатор : 2
Формат : MPEG Audio
Версия формата : Version 1
Профиль формата : Layer 3
Идентификатор кодека : 55
Идентификатор кодека/Подсказка : MP3
Продолжительность : 44 м. 17 с.
Вид битрейта : Постоянный
Битрейт : 112 кбит/сек
Каналы : 2 канала
Частота : 44,1 кГц
Метод сжатия : С потерями
Размер потока : 35,5 Мбайт (6%)
Выравнивание : Разделение по промежуткам
Продолжительность промежутка : 33 мс. (1,00 видеокадр)
Время предзагрузки промежутка : 500 мс.
Заголовок : Original

Скриншоты


Скачать Vorony_Bojcy_starshej_shkoly__Koukou_Butouden_C.torrent

просмотры: 2

Post Comment