Аниме

Военная хроника маленькой девочки / Youjo Senki [S01] (2017) HDTVRip 720p | AniDub, SHIZA Project

Информация о фильме
Название: Военная хроника маленькой девочки
Оригинальное название: Youjo Senki
Год выхода: 2017
Жанр: фэнтези, фантастика, приключения
Режиссер: Уэмура Ютака
Художник: Хираянаги Сатоси, Уэда Мидзука
В ролях: Юки Аой, Хаями Саори, Мики Синъитиро, Гэнда Тэссё, Оцука Хотю
О фильме:
Где-то в параллельном мире идет война. В первых рядах, среди суровых мужчин, командующая немного не мало целым отрядом, затесалась юная белокурая девушка по имени Таня Дегручова. Ну, или, по крайней мере, так кажется со стороны. Мало кто знает, что на самом деле она — это он.Еще будучи в Японии очередным представителем офисного планктона, пускай и очень успешным, «повезло» Ему натолкнутся на нечто, называющего себя Богом. А тот взял и переродил Его в виде той самой девушки, да еще в ином мире, погрязшем в войне. Теперь у Него только одна цель — любыми средствами добиться не меньшего положения, чем Он занимал у себя на родине.


World Art | MAL

Страна: Япония
Студия: NUT
Продолжительность: 00:24:00
Язык: Русский, Японский
Перевод: Любительский (многоголосый, закадровый)

Файл
Качество: HDTVRip
Формат: MKV
Кодек: H.264
Аудио кодек: AAC
Видео: 1280×720, 23.976 fps, 2100 kbps
Аудио RUS: 48.0 kHz, AAC, 2 ch, 192 kbps — AniDub
Аудио RUS: 48.0 kHz, AAC, 2 ch, 192 kbps — SHIZA Project
Аудио JAP: 48.0 kHz, AAC, 2 ch, 192 kbps
Субтитры: русские (встроенные надписи, ASS)
Субтитры: русские (встроенные полный перевод, ASS) — YakuSub Studio
Субтитры: русские (встроенные полный перевод, ASS) — Elven_tankman & Shifroval

Релиз от:
Озвучивание: Студийная Банда AD
Перевод: FooBoo
Тайминг и работа со звуком: BalFor
Релиз от:
Озвучивание: Mamoru, Berial (01-06), Dancel(07-12), RJ Pandora, Abe
Перевод: This Guy
Тайминг и работа со звуком: Daelit, ERASP

Скриншоты

Список серий
01. Рейнский Дьявол.
02. Пролог.
03. Деус Вульт!
04. Жизнь в кампусе.
05. Мой первый батальон.
06. Начало безумия.
6,5. Отчёт.
07. Битва за Фьорд.
08. Испытание огнём.
09. Готовьтесь к наступлению.
10. Путь к победе.
11. Сопротивление.
12. Как использовать победу.

MediaInfo
General
Format : Matroska
Format version : Version 4 / Version 2
File size : 449 MiB
Duration : 24 min
Overall bit rate : 2 608 kb/s
Encoded date : UTC 2017-04-11 05:53:38
Writing application : mkvmerge v8.3.0 ('Over the Horizon') 64bit
Writing library : libebml v1.3.1 + libmatroska v1.4.2

Video
ID : 1
Format : AVC
Format/Info : Advanced Video Codec
Format profile : [email protected]
Format settings, CABAC : Yes
Format settings, ReFrames : 4 frames
Codec ID : V_MPEG4/ISO/AVC
Duration : 24 min
Bit rate : 2 046 kb/s
Width : 1 280 pixels
Height : 720 pixels
Display aspect ratio : 16:9
Frame rate mode : Constant
Frame rate : 23.976 (24000/1001) FPS
Color space : YUV
Chroma subsampling : 4:2:0
Bit depth : 8 bits
Scan type : Progressive
Bits/(Pixel*Frame) : 0.093
Stream size : 351 MiB (78%)
Writing library : x264 core 129 r2245+729M 1a52e03
Encoding settings : cabac=1 / ref=4 / deblock=1:1:-1 / analyse=0x3:0x113 / me=umh / subme=9 / psy=1 / fade_compensate=0.00 / psy_rd=1.00:0.00 / mixed_ref=1 / me_range=24 / chroma_me=1 / trellis=2 / 8x8dct=1 / cqm=0 / deadzone=21,11 / fast_pskip=1 / chroma_qp_offset=-2 / threads=8 / lookahead_threads=1 / sliced_threads=0 / nr=0 / decimate=1 / interlaced=0 / bluray_compat=0 / constrained_intra=0 / fgo=0 / bframes=9 / b_pyramid=2 / b_adapt=2 / b_bias=0 / direct=1 / weightb=1 / open_gop=0 / weightp=2 / keyint=240 / keyint_min=24 / scenecut=40 / intra_refresh=0 / rc=crf / mbtree=0 / crf=18.5 / qcomp=0.72 / qpmin=0 / qpmax=69 / qpstep=4 / ip_ratio=1.40 / pb_ratio=1.30 / aq=1:0.85
Default : Yes
Forced : No
Color range : Limited
Color primaries : BT.709
Transfer characteristics : BT.709
Matrix coefficients : BT.709

Audio #1
ID : 2
Format : AAC
Format/Info : Advanced Audio Codec
Format profile : LC
Codec ID : A_AAC
Duration : 24 min
Bit rate : 184 kb/s
Channel(s) : 2 channels
Channel positions : Front: L R
Sampling rate : 48.0 kHz
Frame rate : 46.875 FPS (1024 spf)
Compression mode : Lossy
Stream size : 31.7 MiB (7%)
Title : AniDub
Language : Russian
Default : Yes
Forced : No

Audio #2
ID : 3
Format : AAC
Format/Info : Advanced Audio Codec
Format profile : LC
Codec ID : A_AAC
Duration : 24 min
Bit rate : 192 kb/s
Channel(s) : 2 channels
Channel positions : Front: L R
Sampling rate : 48.0 kHz
Frame rate : 46.875 FPS (1024 spf)
Compression mode : Lossy
Stream size : 32.9 MiB (7%)
Title : SHIZA Project
Language : Russian
Default : No
Forced : No

Audio #3
ID : 4
Format : AAC
Format/Info : Advanced Audio Codec
Format profile : LC
Codec ID : A_AAC
Duration : 24 min
Bit rate : 192 kb/s
Channel(s) : 2 channels
Channel positions : Front: L R
Sampling rate : 48.0 kHz
Frame rate : 46.875 FPS (1024 spf)
Compression mode : Lossy
Stream size : 32.8 MiB (7%)
Title : Original
Language : Japanese
Default : No
Forced : No

Text #1
ID : 5
Format : ASS
Codec ID : S_TEXT/ASS
Codec ID/Info : Advanced Sub Station Alpha
Duration : 19 min
Bit rate : 18 b/s
Count of elements : 17
Compression mode : Lossless
Stream size : 2.72 KiB (0%)
Title : Надписи
Language : Russian
Default : Yes
Forced : No

Text #2
ID : 6
Format : ASS
Codec ID : S_TEXT/ASS
Codec ID/Info : Advanced Sub Station Alpha
Duration : 22 min
Bit rate : 162 b/s
Count of elements : 329
Compression mode : Lossless
Stream size : 27.1 KiB (0%)
Title : Полные субтитры — YakuSub Studio
Language : Russian
Default : No
Forced : No

Text #3
ID : 7
Format : ASS
Codec ID : S_TEXT/ASS
Codec ID/Info : Advanced Sub Station Alpha
Duration : 22 min
Bit rate : 162 b/s
Count of elements : 326
Compression mode : Lossless
Stream size : 27.1 KiB (0%)
Title : Полные субтитры — Elven_tankman & Shifroval
Language : Russian
Default : No
Forced : No


Скачать Youjo_Senki_TV_HDTVRip_720p.torrent

просмотры: 9

Post Comment