Биография Зарубежные фильмы

Скрытые фигуры / Hidden Figures (2016) BDRip-HEVC 1080p от HEVC CLUB | Лицензия


Название: Скрытые фигуры
Оригинальное название: Hidden Figures


Год выпуска: 2016
Страна: США
Жанр: драма, биография, история
Продолжительность: 02:06:43
Перевод: Дублированный [Лицензия]
Субтитры: русские, английские


В ролях: Тараджи П. Хенсон, Октавия Спенсер, Жанель Моне, Кевин Костнер, Кирстен Данст, Джим Парсонс, Махершала Али, Элдис Ходж, Глен Пауэлл
Режиссёр: Тед Мелфи


Описание: Команда афро-американок проводит для НАСА ряд математических вычислений, необходимых для запуска первой космической миссии.


Качество: BDRip 1080p
Формат: MKV
Видео кодек: [email protected]
Аудио кодек: AC3, DTS
Видео: 1920×804, 23,976 fps, HEVC, ~4083 kbps, 10bit
Аудио: Rus, 48 kHz/24-bit, DTS 5.1, ~768 kbps | Дубляж
Аудио: Eng, 48 kHz/16-bit, AC3 5.1, ~640 kbps | Оригинал
Навигация по главам: Присутствует


Автор рипа: Alex_A




Внимание!
— H.265/HEVC (High Efficiency Video Coding) — это новый стандарт кодирования видео.
— Стандарт H.265/HEVC является логическим продолжением стандарта H.264/AVC (Advanced Video Coding), и характеризуется более эффективными алгоритмами сжатия, а также поддержкой высокого разрешения вплоть до 8K UHD (8192×4320). Первая версия стандарта H.265 была опубликована в начале 2013 года.
— Рипы в фомате HEVC поддерживается не всеми аппаратными проигрывателями.
— Для корректного воспроизведения может потребоваться обновление ПО.
— Владельцам несовместимого железа просьба не беспокоить, есть альтернативные релизы.

Медиаинфо
Общее
Уникальный идентификатор : 191037737538055556889613950649312440350 (0x8FB887A90CE1531BB17F5C4E0EA7701E)
Полное имя : F:HEVCHidden Figures (2016)Hidden.Figures.2016.1080p_HEVCCLUB.mkv
Формат : Matroska
Версия формата : Version 4 / Version 2
Размер файла : 4,86 Гбайт
Продолжительность : 2 ч. 6 м.
Общий поток : 5493 Кбит/сек
Название фильма : Hidden Figures (2016) — HEVC.CLUB
Дата кодирования : UTC 2017-05-12 08:27:59
Программа кодирования : mkvmerge v9.9.0 ('Pick Up') 64bit
Библиотека кодирования : libebml v1.3.4 + libmatroska v1.4.5
Обложка : Yes
Attachments : cover.jpg

Видео
Идентификатор : 1
Формат : HEVC
Формат/Информация : High Efficiency Video Coding
Профиль формата : Main [email protected]@High
Идентификатор кодека : V_MPEGH/ISO/HEVC
Продолжительность : 2 ч. 6 м.
Битрейт : 4083 Кбит/сек
Ширина : 1920 пикселей
Высота : 804 пикселя
Соотношение сторон : 2,40:1
Режим частоты кадров : Постоянный
Частота кадров : 23,976 (24000/1001) кадра/сек
Цветовое пространство : YUV
Субдискретизация насыщенности : 4:2:0
Битовая глубина : 10 бит
Бит/(Пиксели*Кадры) : 0.110
Размер потока : 3,61 Гбайт (74%)
Заголовок : HEVC.CLUB
Библиотека кодирования : x265 2.3+24-a0eee4b41185:[Windows][GCC 6.3.0][64 bit] 10bit
Настройки программы : cpuid=1173503 / frame-threads=3 / numa-pools=8 / wpp / no-pmode / no-pme / no-psnr / ssim / log-level=2 / input-csp=1 / input-res=1920×804 / interlace=0 / total-frames=0 / level-idc=41 / high-tier=1 / uhd-bd=0 / ref=6 / no-allow-non-conformance / repeat-headers / annexb / aud / hrd / info / hash=0 / no-temporal-layers / open-gop / min-keyint=23 / keyint=250 / bframes=10 / b-adapt=2 / b-pyramid / bframe-bias=0 / rc-lookahead=60 / lookahead-slices=1 / scenecut=40 / no-intra-refresh / ctu=64 / min-cu-size=8 / no-rect / no-amp / max-tu-size=32 / tu-inter-depth=3 / tu-intra-depth=3 / limit-tu=0 / rdoq-level=1 / dynamic-rd=4.00 / signhide / no-tskip / nr-intra=0 / nr-inter=0 / no-constrained-intra / no-strong-intra-smoothing / max-merge=2 / limit-refs=3 / no-limit-modes / me=1 / subme=4 / merange=64 / temporal-mvp / weightp / weightb / no-analyze-src-pics / deblock=-3:-3 / no-sao / no-sao-non-deblock / rd=4 / no-early-skip / no-rskip / no-fast-intra / no-tskip-fast / no-cu-lossless / no-b-intra / rdpenalty=0 / psy-rd=1.60 / psy-rdoq=2.30 / no-rd-refine / analysis-mode=0 / no-lossless / cbqpoffs=0 / crqpoffs=0 / rc=crf / crf=22.0 / qcomp=0.90 / qpstep=6 / stats-write=0 / stats-read=0 / vbv-maxrate=50000 / vbv-bufsize=50000 / vbv-init=0.9 / crf-max=0.0 / crf-min=0.0 / ipratio=1.50 / pbratio=1.00 / aq-mode=1 / aq-strength=0.80 / no-cutree / zone-count=0 / no-strict-cbr / qg-size=32 / no-rc-grain / qpmax=69 / qpmin=0 / sar=1 / overscan=0 / videoformat=5 / range=0 / colorprim=2 / transfer=2 / colormatrix=1 / chromaloc=0 / display-window=0 / max-cll=0,0 / min-luma=0 / max-luma=1023 / log2-max-poc-lsb=8 / vui-timing-info / vui-hrd-info / slices=1 / opt-qp-pps / opt-ref-list-length-pps / no-multi-pass-opt-rps / scenecut-bias=0.05 / no-opt-cu-delta-qp / aq-motion / no-hdr / no-hdr-opt / refine-level=5
Default : Да
Forced : Да
Цветовой диапазон : Limited
Коэффициенты матрицы : BT.709

Аудио #1
Идентификатор : 2
Формат : DTS
Формат/Информация : Digital Theater Systems
Режим : 16
Параметр Endianness формата : Big
Идентификатор кодека : A_DTS
Продолжительность : 2 ч. 6 м.
Вид битрейта : Постоянный
Битрейт : 768 Кбит/сек
Каналы : 6 каналов
Расположение каналов : Front: L C R, Side: L R, LFE
Частота : 48,0 КГц
Частота кадров : 93,750 кадра/сек (512 spf)
Битовая глубина : 24 бит
Метод сжатия : С потерями
Размер потока : 696 Мбайт (14%)
Заголовок : Dub [licence]
Язык : Russian
Default : Да
Forced : Нет

Аудио #2
Идентификатор : 3
Формат : AC-3
Формат/Информация : Audio Coding 3
Расширение режима : CM (complete main)
Параметр Endianness формата : Big
Идентификатор кодека : A_AC3
Продолжительность : 2 ч. 6 м.
Вид битрейта : Постоянный
Битрейт : 640 Кбит/сек
Каналы : 6 каналов
Расположение каналов : Front: L C R, Side: L R, LFE
Частота : 48,0 КГц
Частота кадров : 31,250 кадров/сек (1536 spf)
Метод сжатия : С потерями
Размер потока : 580 Мбайт (12%)
Заголовок : Original
Язык : English
Default : Нет
Forced : Нет

Текст #1
Идентификатор : 4
Формат : UTF-8
Идентификатор кодека : S_TEXT/UTF8
Идентификатор кодека/Информация : UTF-8 Plain Text
Продолжительность : 2 ч. 6 м.
Битрейт : 4 бит/сек
Count of elements : 67
Размер потока : 4,25 Кбайт (0%)
Заголовок : Forced
Язык : Russian
Default : Да
Forced : Нет

Текст #2
Идентификатор : 5
Формат : UTF-8
Идентификатор кодека : S_TEXT/UTF8
Идентификатор кодека/Информация : UTF-8 Plain Text
Продолжительность : 2 ч. 6 м.
Битрейт : 109 бит/сек
Count of elements : 1966
Размер потока : 102 Кбайт (0%)
Заголовок : Full
Язык : Russian
Default : Нет
Forced : Нет

Текст #3
Идентификатор : 6
Формат : UTF-8
Идентификатор кодека : S_TEXT/UTF8
Идентификатор кодека/Информация : UTF-8 Plain Text
Продолжительность : 2 ч. 6 м.
Битрейт : 70 бит/сек
Count of elements : 2315
Размер потока : 65,0 Кбайт (0%)
Заголовок : Full
Язык : English
Default : Нет
Forced : Нет

Текст #4
Идентификатор : 7
Формат : UTF-8
Идентификатор кодека : S_TEXT/UTF8
Идентификатор кодека/Информация : UTF-8 Plain Text
Продолжительность : 2 ч. 6 м.
Битрейт : 74 бит/сек
Count of elements : 2424
Размер потока : 68,5 Кбайт (0%)
Заголовок : SDH
Язык : English
Default : Нет
Forced : Нет

Меню
00:00:00.000 : en:Chapter 1
00:03:13.360 : en:Chapter 2
00:08:13.535 : en:Chapter 3
00:12:01.721 : en:Chapter 4
00:16:32.241 : en:Chapter 5
00:21:06.682 : en:Chapter 6
00:23:53.682 : en:Chapter 7
00:26:59.451 : en:Chapter 8
00:32:18.520 : en:Chapter 9
00:37:37.005 : en:Chapter 10
00:41:36.577 : en:Chapter 11
00:46:08.474 : en:Chapter 12
00:49:30.467 : en:Chapter 13
00:56:11.743 : en:Chapter 14
01:00:02.599 : en:Chapter 15
01:03:27.971 : en:Chapter 16
01:08:43.328 : en:Chapter 17
01:15:03.624 : en:Chapter 18
01:19:05.991 : en:Chapter 19
01:22:17.432 : en:Chapter 20
01:26:50.330 : en:Chapter 21
01:32:27.709 : en:Chapter 22
01:35:19.088 : en:Chapter 23
01:40:41.285 : en:Chapter 24
01:44:42.860 : en:Chapter 25
01:49:35.194 : en:Chapter 26
01:54:38.830 : en:Chapter 27
01:59:47.263 : en:Chapter 28

Скриншоты

[/hide]


Скачать Hidden.Figures.2016.1080p_HEVCCLUB.torrent

просмотры: 6

Post Comment