Биография Зарубежные фильмы

Основатель / The Founder (2016) BDRemux 1080p от ExKinoRay | P

Информация о фильме
Название: Основатель
Оригинальное название: The Founder
Год выхода: 2016
Жанр: Драма, биография, история
Режиссер: Джон Ли Хэнкок
В ролях: Линда Карделлини, Ник Офферман, Майкл Китон, Патрик Уилсон, Лора Дерн, Джон Кэрролл Линч, Б.Дж. Новак, Кимберли Баттиста, Катрин Дайер, Девон Огден

О фильме:
Фильм расскажет о жизни Рэя Крока, человека создавшего самую известную в мире сеть ресторанов быстрого обслуживания — McDonald`s. К такому успеху стремится любой уважающий себя мужчина. Хотя большая часть в 52 года уже задумывается о пенсии, упадке сил, потере интереса к женщинам и невозможности изменить устоявшийся расклад в жизни. Но только не Рэй Крок, который загорелся таким жгучим желанием, что найденная им «скважина» со временем принесла ему астрономическую сумму денег. Он словно выпил эликсир молодости и с головой окунулся в воплощение пресловутой американской мечты. У него всё получалось

Страна: США
Студия: Faliro House Productions, FilmNation Entertainment, Speedie Distribution, The Combine
Продолжительность: 01:56:25
Перевод: Профессиональный многоголосый | Jaskier

Файл
Качество: BDRemux 1080p
Видео: MPEG-4 AVC, 1920×1080, 25.9 Mbit/s, 23.976 fps
Звук:
Аудио #01: 48 kHz, AC3, 5.1, 384 Kbps | Jaskier | RUS |
Аудио #02: 48 kHz, DTS-HD MA, 5.1, 3290 Kbps | Оригинал | ENG |
Субтитры: Английские

MI
General
Unique ID : 182581199114637301182735836183613519849 (0x895BDC202897FF398E02170EB161B7E9)
Complete name : F:VideoThe.Founder.2016.BDREMUX.1080p.ExKinoRay.mkv
Format : Matroska
Format version : Version 4 / Version 2
File size : 23.8 GiB
Duration : 1 h 55 min
Overall bit rate mode : Variable
Overall bit rate : 29.6 Mb/s
Encoded date : UTC 2017-05-11 13:41:34
Writing application : mkvmerge v11.0.0 ('Alive') 64bit
Writing library : libebml v1.3.4 + libmatroska v1.4.5

Video
ID : 1
Format : AVC
Format/Info : Advanced Video Codec
Format profile : [email protected]
Format settings, CABAC : Yes
Format settings, ReFrames : 4 frames
Format settings, GOP : M=3, N=24
Codec ID : V_MPEG4/ISO/AVC
Duration : 1 h 55 min
Bit rate mode : Variable
Bit rate : 25.9 Mb/s
Maximum bit rate : 35.0 Mb/s
Width : 1 920 pixels
Height : 1 080 pixels
Display aspect ratio : 16:9
Frame rate mode : Constant
Frame rate : 23.976 (24000/1001) FPS
Standard : NTSC
Color space : YUV
Chroma subsampling : 4:2:0
Bit depth : 8 bits
Scan type : Progressive
Bits/(Pixel*Frame) : 0.521
Stream size : 20.9 GiB (88%)
Language : English
Default : Yes
Forced : No
Color range : Limited
Color primaries : BT.709
Transfer characteristics : BT.709
Matrix coefficients : BT.709

Audio #1
ID : 2
Format : AC-3
Format/Info : Audio Coding 3
Format settings, Endianness : Big
Codec ID : A_AC3
Duration : 1 h 55 min
Bit rate mode : Constant
Bit rate : 384 kb/s
Channel(s) : 6 channels
Channel positions : Front: L C R, Side: L R, LFE
Sampling rate : 48.0 kHz
Frame rate : 31.250 FPS (1536 spf)
Bit depth : 16 bits
Compression mode : Lossy
Stream size : 317 MiB (1%)
Title : MVO
Language : Russian
Service kind : Complete Main
Default : Yes
Forced : No

Audio #2
ID : 3
Format : DTS
Format/Info : Digital Theater Systems
Format profile : MA / Core
Mode : 16
Format settings, Endianness : Big
Codec ID : A_DTS
Duration : 1 h 55 min
Bit rate mode : Variable / Constant
Bit rate : 3 290 kb/s / 1 509 kb/s
Channel(s) : 6 channels
Channel positions : Front: L C R, Side: L R, LFE
Sampling rate : 48.0 kHz
Frame rate : 93.750 FPS (512 spf)
Bit depth : 24 bits
Compression mode : Lossless / Lossy
Stream size : 2.65 GiB (11%)
Title : Original
Language : English
Default : No
Forced : No

Text #1
ID : 4
Format : UTF-8
Codec ID : S_TEXT/UTF8
Codec ID/Info : UTF-8 Plain Text
Duration : 1 h 49 min
Bit rate : 77 b/s
Count of elements : 1849
Stream size : 62.4 KiB (0%)
Title : Full
Language : English
Default : No
Forced : No

Text #2
ID : 5
Format : UTF-8
Codec ID : S_TEXT/UTF8
Codec ID/Info : UTF-8 Plain Text
Duration : 1 h 50 min
Bit rate : 79 b/s
Count of elements : 1905
Stream size : 63.9 KiB (0%)
Title : SDH
Language : English
Default : No
Forced : No

Menu
00:00:00.000 : en:00:00:00.000
00:04:21.094 : en:00:04:21.094
00:10:09.984 : en:00:10:09.984
00:16:15.391 : en:00:16:15.391
00:25:07.172 : en:00:25:07.172
00:31:55.247 : en:00:31:55.247
00:38:49.661 : en:00:38:49.661
00:45:43.491 : en:00:45:43.491
00:52:27.394 : en:00:52:27.394
01:00:31.670 : en:01:00:31.670
01:07:38.263 : en:01:07:38.263
01:12:04.904 : en:01:12:04.904
01:18:36.045 : en:01:18:36.045
01:24:36.947 : en:01:24:36.947
01:31:41.121 : en:01:31:41.121
01:37:26.674 : en:01:37:26.674
01:43:35.167 : en:01:43:35.167
01:47:11.675 : en:01:47:11.675

Релиз от: Автор релиза: Подпишись на меня:


Скачать The.Founder.2016.BDREMUX.1080p.ExKinoRay.mkv.torrent

просмотры: 0

Post Comment