Зарубежные фильмы Комедия

Настоящие гении / Real Genius (1985) BDRip 720p | P, A

Информация о фильме
Название: Настоящие гении
Оригинальное название: Real Genius
Год выхода: 1985
Жанр: фантастика, мелодрама, комедия
Режиссер: Марта Кулидж / Martha Coolidge
В ролях: Вэл Килмер, Гэбриел Джаррет, Мишель Майринк, Уильям Этертон, Джон Грайз, Патти Д’Арбанвиль, Стэйси Пералта, Даниэль Адес, Андрес Айбар, Луис Гьямбалво, Эд Лотер, ДжоЭнн Уиллетт, Джоэнн Барон, Дин Девлин, Юдзи Окумото, Линда Вайсмейер, Пенни Бэйкер, Джон Василий, Дебора Формен, Джинн Мори

О фильме:
Юный гений Митч поступает в университет в 15 лет. Его соседом по комнате оказывается другой молодой талант, Крис Найт, предводитель компании самых способных студентов университета.
В рамках исследовательского проекта одного из профессоров ребята разрабатывают высокомощный лазер, однако профессор похищает его, чтобы продать военным для использования в качестве оружия. Студенты взламывают механизм управления лазером и срывают планы профессора…


Страна: США
Студия: Delphi III Productions
Продолжительность: 01:45:54.400
Перевод: Профессиональный (многоголосый закадровый) 1 канал
Авторский (одноголосый закадровый) А.Михалев

Файл
Кодек: h.264
Качество: BDRip 720p Исходник BD25 Sony Pictures
Видео: 1280×532 (2.40:1), 23.976 fps, AVC, ~6075 Kbps, 0.372 bits/pixel
Звук:
Русский, 48.0 KHz, AC3, 2 ch, 192 Kbps 1 Канал
Русский, 48.0 KHz, AC3, 2 ch, 192 Kbps А. Михалев
Английский, 48.0 KHz, AC3, 2 ch, 640 Kbps
Субтитры: Английские, PGS

MI
Общее
Уникальный идентификатор : 210956320172694143291124332834893295297 (0x9EB4B59B18ADC537AEC90632F1C76EC1)
Полное имя : D:FILMSNastoyaschiye_Genii.1985.BDRip720p.mkv
Формат : Matroska
Версия формата : Version 4 / Version 2
Размер файла : 5,36 Гбайт
Продолжительность : 1 ч. 45 м.
Общий поток : 7243 Кбит/сек
Дата кодирования : UTC 2017-06-04 22:23:26
Программа кодирования : mkvmerge v12.0.0 ('Trust / Lust') 64bit
Библиотека кодирования : libebml v1.3.4 + libmatroska v1.4.5

Видео
Идентификатор : 1
Формат : AVC
Формат/Информация : Advanced Video Codec
Профиль формата : [email protected]
Параметр CABAC формата : Да
Параметр ReFrames формата : 9 кадров
Идентификатор кодека : V_MPEG4/ISO/AVC
Продолжительность : 1 ч. 45 м.
Битрейт : 6199 Кбит/сек
Ширина : 1280 пикселей
Высота : 532 пикселя
Соотношение сторон : 2,40:1
Режим частоты кадров : Постоянный
Частота кадров : 23,976 (24000/1001) кадра/сек
Цветовое пространство : YUV
Субдискретизация насыщенности : 4:2:0
Битовая глубина : 8 бит
Тип развёртки : Прогрессивная
Бит/(Пиксели*Кадры) : 0.380
Размер потока : 4,59 Гбайт (86%)
Библиотека кодирования : x264 core 148 r2744 b97ae06
Настройки программы : cabac=1 / ref=9 / deblock=1:-3:-3 / analyse=0x3:0x133 / me=umh / subme=11 / psy=1 / psy_rd=1.10:0.15 / mixed_ref=1 / me_range=48 / chroma_me=1 / trellis=2 / 8x8dct=1 / cqm=0 / deadzone=21,11 / fast_pskip=0 / chroma_qp_offset=-3 / threads=8 / lookahead_threads=2 / sliced_threads=0 / nr=0 / decimate=0 / interlaced=0 / bluray_compat=0 / constrained_intra=0 / bframes=10 / b_pyramid=2 / b_adapt=2 / b_bias=0 / direct=3 / weightb=1 / open_gop=0 / weightp=2 / keyint=240 / keyint_min=23 / scenecut=40 / intra_refresh=0 / rc_lookahead=60 / rc=crf / mbtree=0 / crf=19.0 / qcomp=0.60 / qpmin=0 / qpmax=69 / qpstep=4 / vbv_maxrate=40000 / vbv_bufsize=50000 / crf_max=0.0 / nal_hrd=none / filler=0 / ip_ratio=1.40 / pb_ratio=1.30 / aq=1:1.00
Default : Нет
Forced : Нет
Цветовой диапазон : Limited
Основные цвета : BT.709
Характеристики трансфера : BT.709
Коэффициенты матрицы : BT.709

Аудио #1
Идентификатор : 2
Формат : AC-3
Формат/Информация : Audio Coding 3
Расширение режима : CM (complete main)
Параметр Endianness формата : Big
Идентификатор кодека : A_AC3
Продолжительность : 1 ч. 45 м.
Вид битрейта : Постоянный
Битрейт : 192 Кбит/сек
Каналы : 2 канала
Расположение каналов : Front: L R
Частота : 48,0 КГц
Частота кадров : 31,250 кадров/сек (1536 spf)
Битовая глубина : 16 бит
Метод сжатия : С потерями
Размер потока : 145 Мбайт (3%)
Заголовок : 1 Kanal
Язык : Russian
Default : Да
Forced : Нет

Аудио #2
Идентификатор : 3
Формат : AC-3
Формат/Информация : Audio Coding 3
Расширение режима : CM (complete main)
Параметр Endianness формата : Big
Идентификатор кодека : A_AC3
Продолжительность : 1 ч. 45 м.
Вид битрейта : Постоянный
Битрейт : 192 Кбит/сек
Каналы : 2 канала
Расположение каналов : Front: L R
Частота : 48,0 КГц
Частота кадров : 31,250 кадров/сек (1536 spf)
Битовая глубина : 16 бит
Метод сжатия : С потерями
Размер потока : 145 Мбайт (3%)
Заголовок : Mikhalyev
Язык : Russian
Default : Нет
Forced : Нет

Аудио #3
Идентификатор : 4
Формат : AC-3
Формат/Информация : Audio Coding 3
Расширение режима : CM (complete main)
Параметр Endianness формата : Big
Идентификатор кодека : A_AC3
Продолжительность : 1 ч. 45 м.
Вид битрейта : Постоянный
Битрейт : 640 Кбит/сек
Каналы : 2 канала
Расположение каналов : Front: L R
Частота : 48,0 КГц
Частота кадров : 31,250 кадров/сек (1536 spf)
Битовая глубина : 16 бит
Метод сжатия : С потерями
Размер потока : 485 Мбайт (9%)
Язык : English
Default : Нет
Forced : Нет

Текст
Идентификатор : 5
Формат : PGS
Режим смешивания : zlib
Идентификатор кодека : S_HDMV/PGS
Идентификатор кодека/Информация : Picture based subtitle format used on BDs/HD-DVDs
Продолжительность : 1 ч. 45 м.
Битрейт : 17,7 Кбит/сек
Count of elements : 3044
Размер потока : 13,3 Мбайт (0%)
Язык : English
Default : Нет
Forced : Нет

Меню
00:00:00.000 : en:00:00:00.000
00:10:02.602 : en:00:10:02.602
00:20:04.203 : en:00:20:04.203
00:30:02.801 : en:00:30:02.801
00:40:03.401 : en:00:40:03.401
00:50:04.001 : en:00:50:04.001
01:00:04.601 : en:01:00:04.601
01:10:05.201 : en:01:10:05.201
01:20:06.802 : en:01:20:06.802
01:30:07.402 : en:01:30:07.402
01:40:07.001 : en:01:40:07.001

Скриншоты

Релиз от: Temperest


Скачать Nastoyaschiye_Genii.1985.BDRip720p.mkv.torrent

просмотры: 3

Post Comment