Аниме

Месть Масамунэ! / Masamune-kun no Revenge [S01] (2017) WEBRip 720p | AniDub, SHIZA Projec

Информация о фильме
Название: Месть Масамунэ!
Оригинальное название: Masamune-kun no Revenge
Год выхода: 2017
Жанр: комедия, романтика
Режиссер: Минато Мирай
Художник: Маэда Минору
В ролях: Ханаэ Нацуки, Охаси Аяка, Минасэ Инори, Мимори Судзуко, Тадокоро Адзуса, Хаями Саори, Огура Юй, Огамэ Асука, Исэ Мария, Ито Канаэ, Сато Сатоми
О фильме:
Будучи ребенком, Масамунэ Макабэ сильно пострадал от богатой и красивой девушки по имени Аки Адагаки. Она издевалась над ним и называла «поросенком» из-за его внешности, отягощенной лишним весом. И так эта мадам его достала, что Масамунэ решил ей страшно отомстить: начал упорно работать над собой, взялся за учебу и личностное развитие.И вот спустя несколько лет наш обновленный герой переводится в школу, где учится Аки, с единственной целью: заставить девушку пройти через те же страдания и унижения, через которые прошел он сам.


World Art | MAL

Страна: Япония
Студия: Silver Link
Продолжительность: 00:23:40
Язык: Русский, Японский
Перевод: Любительский (многоголосый, закадровый)

Файл
Качество: WEBRip
Формат: MKV
Видео кодек: H.264
Аудио кодек: AAC
Видео: 1280×720, 23.976 fps, 1800 kbps
Аудио RUS: 48.0 kHz, AAC, 2 ch, 192 kbps — SHIZA Project
Аудио RUS: 48.0 kHz, AAC, 2 ch, 192 kbps — AniDub
Аудио JAP: 44.1 kHz, AAC, 2 ch, 128 kbps
Субтитры: русские (встроенные надписи, ASS)
Субтитры: русские (встроенные полный перевод, ASS) — LeDi-MaHo Team

Релиз от:
Озвучивание: Snowly, Nate, RJ Pandora, Лизавета
Перевод: Horosant
Тайминг и работа со звуком: Gigantic Guyver
Релиз от:
Озвучивание: Trina_D, Nika Lenina, JAM
Перевод: New Meta
Тайминг и работа со звуком: Sakuragi_R

Скриншоты

Список серий
01. Мальчик по прозвищу боров
02. Угрюмая золушка
03. Колдовство Ёшино
04. Чёткая реальная опасность
05. Загадочная кошка
06. Нападение! Битва в гостях
07. Случай на острове Цунаде
08. Не ты
09. Любовь и привязанность
10. Суматоха в новом году
11. Белоснежка фестиваля Ясака
12. Не уходи со сцены, даже если умираешь

MediaInfo
General
Format : Matroska
Format version : Version 4 / Version 2
File size : 388 MiB
Duration : 23 min
Overall bit rate : 2 291 kb/s
Encoded date : UTC 2017-02-04 14:32:46
Writing application : mkvmerge v8.3.0 ('Over the Horizon') 64bit
Writing library : libebml v1.3.1 + libmatroska v1.4.2
Attachments : OpenSans-Semibold.ttf

Video
ID : 1
Format : AVC
Format/Info : Advanced Video Codec
Format profile : [email protected]
Format settings, CABAC : Yes
Format settings, ReFrames : 6 frames
Codec ID : V_MPEG4/ISO/AVC
Duration : 23 min
Bit rate : 1 776 kb/s
Width : 1 280 pixels
Height : 720 pixels
Display aspect ratio : 16:9
Frame rate mode : Variable
Frame rate : 23.976 (23976/1000) FPS
Color space : YUV
Chroma subsampling : 4:2:0
Bit depth : 8 bits
Scan type : Progressive
Bits/(Pixel*Frame) : 0.080
Stream size : 300 MiB (77%)
Writing library : x264 core 120 r2120 0c7dab9
Encoding settings : cabac=1 / ref=6 / deblock=1:1:1 / analyse=0x3:0x113 / me=umh / subme=8 / psy=1 / psy_rd=0.40:0.00 / mixed_ref=1 / me_range=16 / chroma_me=1 / trellis=1 / 8x8dct=1 / cqm=0 / deadzone=21,11 / fast_pskip=1 / chroma_qp_offset=-2 / threads=4 / sliced_threads=0 / nr=0 / decimate=1 / interlaced=0 / bluray_compat=0 / constrained_intra=0 / bframes=3 / b_pyramid=2 / b_adapt=2 / b_bias=0 / direct=3 / weightb=1 / open_gop=0 / weightp=2 / keyint=250 / keyint_min=23 / scenecut=40 / intra_refresh=0 / rc_lookahead=50 / rc=2pass / mbtree=1 / bitrate=1776 / ratetol=1.0 / qcomp=0.60 / qpmin=0 / qpmax=69 / qpstep=4 / cplxblur=20.0 / qblur=0.5 / vbv_maxrate=3552 / vbv_bufsize=8880 / nal_hrd=none / ip_ratio=1.40 / aq=1:0.60
Default : Yes
Forced : No

Audio #1
ID : 2
Format : AAC
Format/Info : Advanced Audio Codec
Format profile : LC
Codec ID : A_AAC
Duration : 23 min
Bit rate : 192 kb/s
Channel(s) : 2 channels
Channel positions : Front: L R
Sampling rate : 48.0 kHz
Frame rate : 46.875 FPS (1024 spf)
Compression mode : Lossy
Stream size : 32.5 MiB (8%)
Title : SHIZA Project
Language : Russian
Default : Yes
Forced : No

Audio #2
ID : 3
Format : AAC
Format/Info : Advanced Audio Codec
Format profile : LC
Codec ID : A_AAC
Duration : 23 min
Bit rate : 192 kb/s
Channel(s) : 2 channels
Channel positions : Front: L R
Sampling rate : 48.0 kHz
Frame rate : 46.875 FPS (1024 spf)
Compression mode : Lossy
Stream size : 32.5 MiB (8%)
Title : AniDub
Language : Russian
Default : No
Forced : No

Audio #3
ID : 4
Format : AAC
Format/Info : Advanced Audio Codec
Format profile : LC
Codec ID : A_AAC
Duration : 23 min
Bit rate : 128 kb/s
Channel(s) : 2 channels
Channel positions : Front: L R
Sampling rate : 44.1 kHz
Frame rate : 43.066 FPS (1024 spf)
Compression mode : Lossy
Stream size : 21.7 MiB (6%)
Title : Original
Language : Japanese
Default : No
Forced : No

Text #1
ID : 5
Format : ASS
Codec ID : S_TEXT/ASS
Codec ID/Info : Advanced Sub Station Alpha
Duration : 20 min
Bit rate : 4 b/s
Count of elements : 14
Compression mode : Lossless
Stream size : 659 Bytes (0%)
Title : Надписи
Language : Russian
Default : Yes
Forced : No

Text #2
ID : 6
Format : ASS
Codec ID : S_TEXT/ASS
Codec ID/Info : Advanced Sub Station Alpha
Duration : 21 min
Bit rate : 184 b/s
Count of elements : 362
Compression mode : Lossless
Stream size : 29.4 KiB (0%)
Title : Полные субтитры
Language : Russian
Default : No
Forced : No


Скачать Masamune-kun_no_Revenge_TV_WEBRip_720p.torrent

просмотры: 3

Post Comment