Мультипликация

Малышарики [01-77 + 46 бонусов] (2015-2017) WEB-DLRip от ExKinoRay

Информация о фильме
Название: Малышарики
Год выпуска: 2015-2017
Страна: Россия, Студия анимации «Петербург»
Жанр: Обучающий, мультфильм, рисованный, детский
Продолжительность: 77 х ~ 00:05:00; 46 х ~ 00:01:54
Язык: русский

Режиссёр: Марина Мошкова

Озвучивали: Анна Геллер, Марианна Мокшина

Описание: Новый мультсериал «Малышарики» представили маленьким зрителям российские мультипликаторы. Он рассчитан на детскую аудиторию, возрастом от 0 до 4 лет. Многие уже знакомы с персонажами увлекательного и смешного мультика «Смешарики». И, наверное, всем интересно, какими были эти герои в детстве? Дети познакомятся с Нюшей и Барашем, Крошем, Ежиком, Лосяшем, и другими забавными персонажами.
Мир Малышариков – это простой и понятный мир увлечений, радости и заботы. В нем живут Малышарики, каждый из которых уже имеет свой особенный характер. Они всегда готовы придумать новую игру или поделиться своими знаниями и умениями. Малышарики говорят с малышами на одном удивительном – детском языке, поэтому всегда близки и понятны.

Список серий

01. Качели
02. Прогулка
03. Фломастеры
04. Ракета
05. Следы
06. Башня
07. Красная шапочка
08. Солнышко
09. Ёлка
10. Попрыгушки
11. Ручейки
12. Машинка
13. Прятки
14. Домики
15. Ведёрко
16. На площадке
17. Самокат
18. Футбол
19. Спокойной ночи, Звёздочка
20. Шмяк
21. Цветок
22. Просыпайся
23. Самолётик
24. Лошадка — Уборка игрушек
25. Рыбалка
26. Мозаика
27. Ушки
28. Подружки
29. Обруч
30. Стёклышко
31. Зеленука
32. Бусики
33. Сказочка
34. Сладкоежки
35. Поехали!
36. Загадка
37. Секрет
38. Труба
39. Пандочкино море
40. Считалочка
41. Вертолёт
42. Дерево
43. Шарик
44. Мишка
45. Пчёлки
46. Давай играть!
47. Печенье
48. Вертушки
49. Сюрприз
50. Магнитик
51. Не скучай!
52. Колпачок
53. Сапожки
54. Гости
55. Фокус
56. Книжка
57. Робот
58. Чемпионы
59. Пароход
60. Ромашка
61. Пёрышко
62. Грузовичок
63. Пузыри
64. Чей хвостик?
65. Мяу- Гав!
66. Кроватка
67. Засоня
68. В лесу
69. Автобус
70. Скакалка
71. Осьминог
72. Догонялки
73. Кораблики
74. Мандарин
75. Ферма
76. Ау!
77. Помощница

Бонус_Умные песенки
001. Жёлтый и синий
002. Лёгкое и тяжёлое
003. Длинное и короткое
004. Чёрное и белое
005. Один и много
006. Красный
007. Круг
008. Твёрдое и мягкое
009. Узкое и широкое!
010. Спасибо и пожалуйста
011. Треугольник
012. Играем вместе
013. Вежливо — невежливо
014. Большое и маленькое
015. Подготовка ко сну
016. Высоко и низко
017. Можно и нельзя
018. Волшебные слова
019. Разминка
020. Малышарикам годик
021. Далеко и близко
022. Уборка игрушек
023. День и ночь
024. Квадрат
025. Внутри и снаружи
026. Имена
027. Малышарики поздравляют с Новым Годом!
028. Овал
029. Цветное и бесцветное
030. Зеленый
031. Оранжевый
032. Утро и вечер
033. Горячее и холодное
034. Транспорт
035. Ромб
036. Число 3

Бонус_Раскраска
001. Самолётик
002. Лошадка
003. Качели
004. Фломастеры
005. Следы
006. Кораблик
007. Башня
008. Красная шапочка
009. Ракета
010. Солнышко

Доп. информация:
Семпл

Файл
Формат: AVI
Качество: WEB-DLRip
Видео: 704×400 (1.76:1), 25 fps, XviD build 50 ~799 kbps avg, 0.11 bit/pixel
Аудио: 48 kHz, AC3 Dolby Digital, 2/0 (L,R) ch, ~192.00 kbps avg

MI

07. Красная шапочка. XviD-merci-.avi
Format : AVI
Format/Info : Audio Video Interleave
File size : 36.2 MiB
Duration : 5mn 3s
Overall bit rate : 1 002 Kbps
Writing application : VirtualDubMod 1.5.10.3 | www.virtualdub-fr.org || (build 2550/release)
Writing library : VirtualDubMod build 2550/release

Video
ID : 0
Format : MPEG-4 Visual
Format profile : Advanced [email protected]
Format settings, BVOP : 1
Format settings, QPel : No
Format settings, GMC : No warppoints
Format settings, Matrix : Default (H.263)
Codec ID : XVID
Codec ID/Hint : XviD
Duration : 5mn 3s
Bit rate : 800 Kbps
Width : 704 pixels
Height : 400 pixels
Display aspect ratio : 16:9
Frame rate : 25.000 fps
Color space : YUV
Chroma subsampling : 4:2:0
Bit depth : 8 bits
Scan type : Progressive
Compression mode : Lossy
Bits/(Pixel*Frame) : 0.114
Stream size : 28.9 MiB (80%)
Writing library : XviD 1.2.1 (UTC 2008-12-04)

Audio
ID : 1
Format : AC-3
Format/Info : Audio Coding 3
Mode extension : CM (complete main)
Format settings, Endianness : Big
Codec ID : 2000
Duration : 5mn 3s
Bit rate mode : Constant
Bit rate : 192 Kbps
Channel(s) : 2 channels
Channel positions : Front: L R
Sampling rate : 48.0 KHz
Frame rate : 31.250 fps (1536 spf)
Compression mode : Lossy
Stream size : 6.94 MiB (19%)
Alignment : Split accross interleaves
Interleave, duration : 40 ms (1.00 video frame)
Interleave, preload duratio : 500 ms

Скриншоты

История добавления Эпизодов и Бонусов

Добавил эпизоды:
+ 21 — 06.04.2016
+ 22 — 11.04.2016
+ 23 — 18.04.2016
+ 24 — 25.04.2016
+ 25 — 04.05.2016
+ 26 — 09.05.2016
+ 27 — 16.05.2016
+ 28 — 24.05.2016
+ 29 — 03.06.2016
+ 30 — 05.06.2016
+ 31 — 14.06.2016
+ 32 — 20.06.2016
+ 33 — 01.07.2016
+ 34 — 04.07.2016
+ 35-37 — 23.08.2016
+ 38-39 — 12.09.2016
+ 40 — 18.09.2016
+ 41 — 27.09.2016
+ 42 — 03.10.2016
+ 43 — 13.10.2016
+ 44 — 20.10.2016
+ 45 — 26.10.2016
+ 46-47 — 08.11.2016
+ 48 — 12.11.2016
+ 49 — 21.11.2016
+ 50 — 06.12.2016
+ 51-52 — 13.12.2016
+ 53 — 20.12.2016
+ 54 — 24.12.2016
+ 55 — 01.01.2017
+ 56 — 08.01.2017
+ 57 — 17.01.2017
+ 58-60 — 04.02.2017
+ 61 — 15.02.2017
+ 62 — 21.02.2017
+ 63 — 24.02.2017
+ 64-65 — 11.03.2017
+ 66-74 — 15.05.2017
+ 75-77 — 03.06.2017

Добавил бонусы_Умные песенки:
001-005 — 24.05.2016
+ 006 — 05.06.2016
+ 007 — 10.06.2016
+ 008 — 14.06.2016
+ 009 — 20.06.2016
+ 010 — 01.07.2016
+ 011 — 12.09.2016
+ 012 — 18.09.2016
+ 013 — 03.10.2016
+ 014 — 13.10.2016
+ 015-016 — 20.10.2016
+ 017 — 26.10.2016
+ 018-019 — 12.11.2016
+ 020 — 21.11.2016
+ 021-023 — 06.12.2016
+ 024-025 — 20.12.2016
+ 026 — 24.12.2016
+ 027 — 01.01.2017
+ 028-029 — 08.01.2017
+ 030 — 17.01.2017
+ 031 — 04.02.2017
+ 032-036 — 15.05.2017

Добавил бонусы_Раскраска:
+ 001-005 — 08.11.2016
+ 006 — 06.12.2016
+ 007 — 24.12.2016
+ 008-010 — 24.02.2017

Релиз от:
Автор релиза: /


Скачать Malyshariki._XviD.-merci-.torrent

просмотры: 7

Post Comment