Зарубежные фильмы Исторический

Когда на земле царили динозавры / When Dinosaurs Ruled The Earth (1970) DVDRip | P1

Название: Когда на земле царили динозавры
Оригинальное название: When Dinosaurs Ruled the Earth
Год выпуска: 1970
Жанр: Исторический, фэнтези
Режиссёр: Вэл Гест / Val Guest
В ролях: Виктория Ветри, Роберт Хоудон, Патрик Аллен, Дрюи Хенли, Шон Кэффри, Магда Конопка, Патрик Холт, Жан Россини, Кэрол Хоукинс, Конни Тилтон, Мэгги Линтон

Описание: Миллион лет до нашей эры, когда на земле царили динозавры, племя жителей скал приносило в жертву богу солнца светловолосых девушек. Однажды, в день жертвоприношения, произошла страшная вспышка на солнце, от которой поднималась ужасная буря, во время которой очередная жертва — Санна, сбегает от соплеменников. Девушка находит приют в соседнем племени, живущем в песках, где она сразу завоевывает сердце ловкого Тара — вождя племени. За это темноволосые женщины песков изгоняют прекрасную соперницу в джунгли. Волей случая она становится «приемной дочерью» громадного динозавра и «сестрой» ее детенышу…

Страна: Великобритания
Студия: Hammer Film Productions Limited
Продолжительность: 01:39:43
Перевод: Профессиональный (одноголосый, закадровый) — НТВ-Москва

Файл
Формат: avi
Качество: DVDRip (DVD5)
Видео: XviD, 640х368, 23.976fps, 907kbps
Аудио: MPEG Layer 3, 1ch, 48000Hz, 128kbps

MediaInfo

Общее
Полное имя : Kogda.Na.Zemle.Tsarili.Dinozavry.1970.P1.DVDRip.700.CurHaJI.avi
Формат : AVI
Формат/Информация : Audio Video Interleave
Размер файла : 745 Мбайт
Продолжительность : 1 ч. 39 м.
Общий поток : 1044 Кбит/сек
Название фильма : Kogda.Na.Zemle.Tsarili.Dinozavry.1970.P1.DVDRip.700.CurHaJI
Программа кодирования : VirtualDubMod 1.5.10.3 | www.virtualdub-fr.org || (build 2550/release)
Библиотека кодирования : VirtualDub build 35491/release

Видео
Идентификатор : 0
Формат : MPEG-4 Visual
Профиль формата : Advanced [email protected]
Параметр BVOP формата : 1
Параметр QPel формата : Нет
Параметр GMC формата : Без точки перехода
Параметр матрицы формата : Выборочная
Идентификатор кодека : XVID
Идентификатор кодека/Подсказка : XviD
Продолжительность : 1 ч. 39 м.
Битрейт : 907 Кбит/сек
Ширина : 640 пикселей
Высота : 368 пикселей
Соотношение сторон : 1,739
Частота кадров : 23,976 (24000/1001) кадра/сек
Цветовое пространство : YUV
Субдискретизация насыщенности : 4:2:0
Битовая глубина : 8 бит
Тип развёртки : Прогрессивная
Метод сжатия : С потерями
Бит/(Пиксели*Кадры) : 0.161
Размер потока : 647 Мбайт (87%)
Библиотека кодирования : XviD 73

Аудио
Идентификатор : 1
Формат : MPEG Audio
Версия формата : Version 1
Профиль формата : Layer 3
Идентификатор кодека : 55
Идентификатор кодека/Подсказка : MP3
Продолжительность : 1 ч. 39 м.
Вид битрейта : Постоянный
Битрейт : 128 Кбит/сек
Каналы : 1 канал
Частота : 48,0 КГц
Метод сжатия : С потерями
Размер потока : 91,3 Мбайт (12%)
Выравнивание : Соединение по промежуткам
Продолжительность промежутка : 42 мс. (1,00 видеокадр)
Время предзагрузки промежутка : 504 мс.
Библиотека кодирования : LAME3.99r
Настройки программы : -m m -V 4 -q 2 -lowpass 20.5 -b 128

Скриншоты

Релиз от:


Скачать Kogda.Na.Zemle.Tsarili.Dinozavry.1970.P1.DVDRip.torrent

просмотры: 1

Post Comment