Детский Зарубежные фильмы

Большой и добрый великан / The BFG (2016) BDRip 1080p | Лицензия

Информация о фильме
Название: Большой и добрый великан
Оригинальное название: The BFG
Год выхода: 2016
Жанр: фэнтези, приключения, семейный
Режиссер: Стивен Спилберг
В ролях: Марк Райлэнс, Руби Барнхилл, Пенелопа Уилтон, Джемейн Клемент, Ребекка Холл, Рейф Сполл, Билл Хейдер, Оулавюр Дарри Оулафссон, Адам Годли, Майкл Адамуэйт

О фильме:
В центре истории девочка по имени Софи, которая не смогла заснуть до полуночи и в окошко увидела огромного великана, который подходил к соседним домам и начинал дуть в окна спален. В полном соответствии со старинными поверьями и детскими страшилками, великан увидел Софи и унес к себе домой, в страну великанов.

Как оказалось, он в этой самой стране был единственным добрым великаном: действуя в обстановке строжайшей секретности, он коллекционировал хорошие сны, которые по ночам раздавал детям. Уши у него устроены таким образом, что он слышит, что и о чем снится ребятам, и никогда не позволяет им видеть кошмары.

Страна: Великобритания, Канада, США
Студия: Amblin Entertainment, DreamWorks SKG, Reliance Entertainment
Продолжительность: 01:57:38
Перевод: Профессиональный (дублированный) Blu-ray EUR

Релиз:

Файл
Качество: BDRip 1080p
Формат: Matroska
Видео: 1920×804 at 23.976 fps, [email protected], ~12500 kbps avg
Aудио#1: Russian: 48 kHz, AC3, 3/2 (L,C,R,l,r) + LFE ch, ~640.00 kbps avg |Дубляж, Blu-ray EUR|
Аудио#2: English: 48 kHz, DTS, 3/2 (L,C,R,l,r) + LFE ch, ~1536.00 kbps avg
Субтитры: Russian (Forced, iTunes), Russian (iTunes), English (iTunes)

***Сохранены оригинальные главы как на Blu-ray.
***Видеоряд — DON!

MI
Общее
Уникальный идентификатор : 196489089598843579238322634365461239265 (0x93D26C1164562BB4A373E15C777E95E1)
Полное имя : The.BFG.2016.Hybrid.1080p.BluRay.Rus.Eng.HDCLUB.mkv
Формат : Matroska
Версия формата : Version 2
Размер файла : 12,0 Гбайт
Продолжительность : 1 ч. 57 м.
Общий поток : 14,6 Мбит/сек
Название фильма : The BFG (2016) — Release for HDCLUB
Дата кодирования : UTC 2017-01-17 09:35:17
Программа кодирования : mkvmerge v3.4.0 ('Rapunzel') built on May 15 2010 09:38:20
Библиотека кодирования : libebml v0.8.0 + libmatroska v0.9.0

Видео
Идентификатор : 1
Формат : AVC
Формат/Информация : Advanced Video Codec
Профиль формата : [email protected]
Параметр CABAC формата : Да
Параметр ReFrames формата : 5 кадров
Идентификатор кодека : V_MPEG4/ISO/AVC
Продолжительность : 1 ч. 57 м.
Битрейт : 12,5 Мбит/сек
Ширина : 1920 пикселей
Высота : 804 пикселя
Соотношение сторон : 2,40:1
Режим частоты кадров : Постоянный
Частота кадров : 23,976 кадра/сек
Цветовое пространство : YUV
Субдискретизация насыщенности : 4:2:0
Битовая глубина : 8 бит
Тип развёртки : Прогрессивная
Бит/(Пиксели*Кадры) : 0.338
Размер потока : 10,0 Гбайт (83%)
Заголовок : The BFG (2016) — Release for HDCLUB
Библиотека кодирования : x264 core 148 r2721 72d53ab
Настройки программы : cabac=1 / ref=5 / deblock=1:-3:-3 / analyse=0x3:0x133 / me=umh / subme=10 / psy=1 / psy_rd=0.90:0.00 / mixed_ref=1 / me_range=32 / chroma_me=1 / trellis=2 / 8x8dct=1 / cqm=0 / deadzone=21,11 / fast_pskip=0 / chroma_qp_offset=-2 / threads=12 / lookahead_threads=2 / sliced_threads=0 / nr=0 / decimate=0 / interlaced=0 / bluray_compat=0 / constrained_intra=0 / bframes=8 / b_pyramid=2 / b_adapt=2 / b_bias=0 / direct=3 / weightb=1 / open_gop=0 / weightp=2 / keyint=240 / keyint_min=23 / scenecut=40 / intra_refresh=0 / rc_lookahead=40 / rc=2pass / mbtree=0 / bitrate=12500 / ratetol=1.0 / qcomp=0.60 / qpmin=0 / qpmax=69 / qpstep=4 / cplxblur=20.0 / qblur=0.5 / vbv_maxrate=62500 / vbv_bufsize=78125 / nal_hrd=none / filler=0 / ip_ratio=1.40 / pb_ratio=1.30 / aq=2:0.90 / zones=57,1573,b=1.2/2205,2719,b=1.2/3939,4290,b=1.2/6022,6162,b=1.1/6238,6329,b=1.2/6570,6666,b=1.2/8701,9339,b=1.2/9929,10238,b=1.1/14427,14534,b=1.2/14718,14799,b=1.2
Язык : English
Default : Да
Forced : Нет

Аудио #1
Идентификатор : 2
Формат : AC-3
Формат/Информация : Audio Coding 3
Расширение режима : CM (complete main)
Параметр Endianness формата : Big
Идентификатор кодека : A_AC3
Продолжительность : 1 ч. 57 м.
Вид битрейта : Постоянный
Битрейт : 640 Кбит/сек
Каналы : 6 каналов
Расположение каналов : Front: L C R, Side: L R, LFE
Частота : 48,0 КГц
Битовая глубина : 16 бит
Метод сжатия : С потерями
Размер потока : 539 Мбайт (4%)
Заголовок : AC3 5.1 @ 640 kbps — DUB, Blu-ray
Язык : Russian
Default : Да
Forced : Нет

Аудио #2
Идентификатор : 3
Формат : DTS
Формат/Информация : Digital Theater Systems
Режим : 16
Параметр Endianness формата : Big
Идентификатор кодека : A_DTS
Продолжительность : 1 ч. 57 м.
Вид битрейта : Постоянный
Битрейт : 1509 Кбит/сек
Каналы : 6 каналов
Расположение каналов : Front: L C R, Side: L R, LFE
Частота : 48,0 КГц
Битовая глубина : 24 бит
Метод сжатия : С потерями
Размер потока : 1,24 Гбайт (10%)
Заголовок : DTS 5.1 @ 1536 kbps
Язык : English
Default : Нет
Forced : Нет

Текст #1
Идентификатор : 4
Формат : UTF-8
Идентификатор кодека : S_TEXT/UTF8
Идентификатор кодека/Информация : UTF-8 Plain Text
Заголовок : Forced, iTunes
Язык : Russian
Default : Да
Forced : Нет

Текст #2
Идентификатор : 5
Формат : UTF-8
Идентификатор кодека : S_TEXT/UTF8
Идентификатор кодека/Информация : UTF-8 Plain Text
Заголовок : iTunes
Язык : Russian
Default : Нет
Forced : Нет

Текст #3
Идентификатор : 6
Формат : UTF-8
Идентификатор кодека : S_TEXT/UTF8
Идентификатор кодека/Информация : UTF-8 Plain Text
Заголовок : iTunes
Язык : English
Default : Нет
Forced : Нет

Меню
00:00:00.000 : en:00:00:00.000
00:07:56.935 : en:00:07:56.935
00:12:26.704 : en:00:12:26.704
00:19:27.083 : en:00:19:27.083
00:23:47.384 : en:00:23:47.384
00:25:35.492 : en:00:25:35.492
00:28:43.889 : en:00:28:43.889
00:37:19.362 : en:00:37:19.362
00:41:56.264 : en:00:41:56.264
00:46:21.028 : en:00:46:21.028
00:52:33.942 : en:00:52:33.942
00:58:18.078 : en:00:58:18.078
01:03:33.768 : en:01:03:33.768
01:12:04.904 : en:01:12:04.904
01:16:24.330 : en:01:16:24.330
01:26:29.393 : en:01:26:29.393
01:36:50.847 : en:01:36:50.847
01:42:01.615 : en:01:42:01.615
01:46:37.099 : en:01:46:37.099
01:49:29.229 : en:01:49:29.229
Скриншоты


Скачать The.BFG.1080p.mkv.torrent

просмотры: 16

Post Comment