Детский Зарубежные фильмы

Большой и добрый великан / The BFG (2016) BDRip 1080p | 3D-Video | HSBS | Лицензия

«Если твой друг великан, тебя ждут великие дела»

Информация о фильме
Название: Большой и добрый великан
Оригинальное название: The BFG
Год выхода: 2016
Жанр: Фэнтези, приключения, семейный
Режиссер: Стивен Спилберг
В ролях: Марк Райлэнс, Руби Барнхилл, Пенелопа Уилтон, Джемейн Клемент, Ребекка Холл, Рейф Сполл, Билл Хейдер, Оулавюр Дарри Оулафссон, Адам Годли, Майкл Адамуэйт

О фильме:
В центре истории девочка по имени Софи, которая не смогла заснуть до полуночи и в окошко увидела огромного великана, который подходил к соседним домам и начинал дуть в окна спален. В полном соответствии со старинными поверьями и детскими страшилками, великан увидел Софи и унес к себе домой, в страну великанов.

Как оказалось, он в этой самой стране был единственным добрым великаном: действуя в обстановке строжайшей секретности, он коллекционировал хорошие сны, которые по ночам раздавал детям. Уши у него устроены таким образом, что он слышит, что и о чем снится ребятам, и никогда не позволяет им видеть кошмары.

Страна: Великобритания, Канада, США
Студия: Amblin Entertainment, DreamWorks SKG, Reliance Entertainment, The Kennedy/Marshall Company, Walden Media, Walt Disney Pictures
Продолжительность: 01:57:09
Перевод: Профессиональный (полное дублирование)[BD EUR]

Файл
Качество: BDRip 1080p
Кодек: x264
Видео: AVC / 1920x1080p / 16:9 / 23,976 fps / 7615 Кbps / 0.153 bit/pix
Аудио 1: Английский / AC3 / 48 KHz / 5.1 ch / 640 Kbps
Аудио 2: Русский / AC3 / 48 KHz / 5.1 ch / 448 Kbps

Субтитры :
Вшитые (softsub):
#1 — Русские Форсированные (включены по умолчанию)
#2 — Русские Полные
#3 — English Full
#4 — English SDH

Формат 3D: Half SideBySide / Горизонтальная анаморфная стереопара
Порядок ракурсов: левый ракурс первый
Семпл

Инфо-файл
Общее
Уникальный идентификатор : 183407959837644949136282853470335634728 (0x89FB16938E643F4B975BA2760F178D28)
Полное имя : D:TorrentsЗавершенныеThe.BFG.2016.HSBS.3D.BDRip.1080p (Мастер5).mkv
Формат : Matroska
Версия формата : Version 2
Размер файла : 7,27 Гбайт
Продолжительность : 1 ч. 57 м.
Общий поток : 8880 Кбит/сек
Название фильма : Большой и добрый великан / The BFG (2016) в 3Д
Дата кодирования : UTC 2017-01-17 19:14:58
Программа кодирования : mkvmerge v4.2.0 ('No Talking') сборка от Jul 28 2010 18:38:23
Библиотека кодирования : libebml v1.0.0 + libmatroska v1.0.0

Видео
Идентификатор : 1
Формат : AVC
Формат/Информация : Advanced Video Codec
Профиль формата : [email protected]
Параметр CABAC формата : Да
Параметр ReFrames формата : 4 кадра
Режим смешивания : Header stripping
Идентификатор кодека : V_MPEG4/ISO/AVC
Продолжительность : 1 ч. 57 м.
Битрейт : 7615 Кбит/сек
Ширина : 1920 пикселей
Высота : 1080 пикселей
Соотношение сторон : 16:9
Режим частоты кадров : Постоянный
Частота кадров : 23,976 кадра/сек
Цветовое пространство : YUV
Субдискретизация насыщенности : 4:2:0
Битовая глубина : 8 бит
Тип развёртки : Прогрессивная
Бит/(Пиксели*Кадры) : 0.153
Размер потока : 6,23 Гбайт (86%)
Заголовок : The.BFG.2016
Библиотека кодирования : x264 core 148 r2699+6+41 29a38aa Yuuki [[email protected]:2:0 X86_64][GCC 5.3.0]
Настройки программы : cabac=1 / ref=3 / deblock=1:-3:-3 / analyse=0x3:0x113 / me=umh / subme=11 / psy=1 / fade_compensate=0.00 / psy_rd=1.00:0.05 / mixed_ref=1 / me_range=48 / chroma_me=1 / trellis=2 / 8x8dct=1 / cqm=0 / deadzone=21,11 / fast_pskip=0 / chroma_qp_offset=-2 / threads=32 / lookahead_threads=5 / sliced_threads=0 / nr=0 / decimate=1 / interlaced=0 / bluray_compat=0 / constrained_intra=0 / fgo=0 / bframes=8 / b_pyramid=2 / b_adapt=2 / b_bias=0 / direct=3 / weightb=1 / open_gop=0 / weightp=2 / keyint=250 / keyint_min=23 / scenecut=40 / intra_refresh=0 / rc_lookahead=40 / rc=crf / mbtree=0 / crf=17.5000 / qcomp=0.60 / qpmin=0:0:0 / qpmax=69:69:69 / qpstep=4 / vbv_maxrate=50000 / vbv_bufsize=40000 / crf_max=0.0 / nal_hrd=none / filler=0 / ip_ratio=1.40 / pb_ratio=1.30 / aq=3:0.90
Язык : English
Default : Да
Forced : Нет

Аудио #1
Идентификатор : 2
Формат : AC-3
Формат/Информация : Audio Coding 3
Расширение режима : CM (complete main)
Параметр Endianness формата : Big
Режим смешивания : Header stripping
Идентификатор кодека : A_AC3
Продолжительность : 1 ч. 57 м.
Вид битрейта : Постоянный
Битрейт : 640 Кбит/сек
Каналы : 6 каналов
Расположение каналов : Front: L C R, Side: L R, LFE
Частота : 48,0 КГц
Метод сжатия : С потерями
Размер потока : 536 Мбайт (7%)
Заголовок : Original — BD 3D UK
Язык : English
Default : Нет
Forced : Нет

Аудио #2
Идентификатор : 7
Формат : AC-3
Формат/Информация : Audio Coding 3
Расширение режима : CM (complete main)
Параметр Endianness формата : Big
Режим смешивания : Header stripping
Идентификатор кодека : A_AC3
Продолжительность : 1 ч. 57 м.
Вид битрейта : Постоянный
Битрейт : 448 Кбит/сек
Каналы : 6 каналов
Расположение каналов : Front: L C R, Side: L R, LFE
Частота : 48,0 КГц
Метод сжатия : С потерями
Размер потока : 375 Мбайт (5%)
Язык : Russian
Default : Да
Forced : Нет

Текст #1
Идентификатор : 3
Формат : UTF-8
Идентификатор кодека : S_TEXT/UTF8
Идентификатор кодека/Информация : UTF-8 Plain Text
Заголовок : Форсированные (расширенные)
Язык : Russian
Default : Да
Forced : Нет

Текст #2
Идентификатор : 4
Формат : UTF-8
Идентификатор кодека : S_TEXT/UTF8
Идентификатор кодека/Информация : UTF-8 Plain Text
Заголовок : Полные —
Язык : Russian
Default : Нет
Forced : Нет

Текст #3
Идентификатор : 5
Формат : UTF-8
Идентификатор кодека : S_TEXT/UTF8
Идентификатор кодека/Информация : UTF-8 Plain Text
Заголовок : Full
Язык : English
Default : Нет
Forced : Нет

Текст #4
Идентификатор : 6
Формат : UTF-8
Идентификатор кодека : S_TEXT/UTF8
Идентификатор кодека/Информация : UTF-8 Plain Text
Заголовок : SDH
Язык : English
Default : Нет
Forced : Нет

Меню
00:00:00.000 : en:00:00:00.000
00:09:58.932 : en:00:09:58.932
00:21:14.064 : en:00:21:14.064
00:33:08.445 : en:00:33:08.445
00:45:41.280 : en:00:45:41.280
00:55:55.394 : en:00:55:55.394
01:07:24.249 : en:01:07:24.249
01:21:49.363 : en:01:21:49.363
01:31:18.807 : en:01:31:18.807
01:37:24.756 : en:01:37:24.756
01:48:05.187 : en:01:48:05.187
02:00:32.767 : en:02:00:32.767

Скриншоты


Скачать The.BFG.2016.HSBS.3D.BDRip.1080p_Master5.mkv.torrent

просмотры: 1

Post Comment