Военный Зарубежные фильмы

Волынь / Wolyn / Hatred (2016) BDRip-AVC от Bathory | A

Информация о фильме
Название: Волынь
Оригинальное название: Wolyn / Hatred
Год выхода: 2016
Жанр: драма, военный, история
Режиссер: Войчех Смажовски
В ролях: Михалина Лабач, Аркадиуш Якубик, Василий Василик, Адриан Заремба, Изабела Куна, Яцек Брачак, Мария Собоциньская, Александр Збаражский, Владимир Процюк, Александр Чешеров

О фильме:
События в фильме начинаются в летние месяцы 1939 года на территории Волыни, которая на тот период относилась к землям Польши. Между главной героиней, красивой польской девушкой Зосей, и украинским хлопцем возникает сильная любовь. Однако родители девушки отдают против её воли замуж за состоятельного вдовца. Скоро началась Вторая Мировая война и муж Зоси отправляется на фронт, оставив её со своими детьми. В то время, когда поляки терпят поражения от гитлеровской армии, в родном крае девушки происходят не менее чудовищные вещи. Украинские националисты начинают все чаще нападать на польское население, вырезая мирных жителей целыми селениями.

Страна: Польша
Студия: Film It
Продолжительность: 02:28:56
Перевод: Авторский (одноголосый закадровый) Михаил Чадов

Файл
Кодек: AVC
Качество: BDRip-AVC
Видео: 1024×432, 2335 kbps, 24 fps, 0.220 Bits/(Pixel*Frame)
Звук: AC3, 48 kHz, 6 ch, 448 kbps — AVO
Субтитры:
1. Русские форсированные
2. Русские полные

MI
Общее
Unique ID : 205888599793246357358653603682517568543 (0x9AE4B3B35246B0608701E7E0C150CC1F)
Complete name : F:Wolyn.2016.BDRip-AVC_by_Bathory.mkv
Format : Matroska
Format version : Version 4 / Version 2
File size : 2,90 Гбайт
Duration : 2 ч. 28 м.
Overall bit rate : 2784 Кбит/сек
Encoded date : UTC 2017-04-26 16:55:54
Writing application : mkvmerge v8.6.1 ('Flying') 64bit
Writing library : libebml v1.3.3 + libmatroska v1.4.4

Видео
ID : 1
Format : AVC
Format/Info : Advanced Video Codec
Format profile : [email protected]
Format settings, CABAC : Да
Format settings, ReFrames : 11 кадров
Codec ID : V_MPEG4/ISO/AVC
Duration : 2 ч. 28 м.
Bit rate : 2335 Кбит/сек
Width : 1024 пикселя
Height : 432 пикселя
Display aspect ratio : 2,40:1
Frame rate mode : Постоянный
Frame rate : 24,000 кадра/сек
Color space : YUV
Chroma subsampling : 4:2:0
Bit depth : 8 бит
Scan type : Прогрессивная
Bits/(Pixel*Frame) : 0.220
Stream size : 2,43 Гбайт (84%)
Writing library : x264 core 148 r2744 b97ae06
Encoding settings : cabac=1 / ref=11 / deblock=1:-2:-2 / analyse=0x3:0x133 / me=umh / subme=11 / psy=1 / psy_rd=1.00:0.15 / mixed_ref=1 / me_range=32 / chroma_me=1 / trellis=2 / 8x8dct=1 / cqm=0 / deadzone=21,11 / fast_pskip=0 / chroma_qp_offset=-3 / threads=12 / lookahead_threads=3 / sliced_threads=0 / nr=0 / decimate=0 / interlaced=0 / bluray_compat=0 / constrained_intra=0 / bframes=16 / b_pyramid=2 / b_adapt=2 / b_bias=0 / direct=3 / weightb=1 / open_gop=0 / weightp=2 / keyint=240 / keyint_min=24 / scenecut=0 / intra_refresh=0 / rc_lookahead=60 / rc=2pass / mbtree=0 / bitrate=2335 / ratetol=1.0 / qcomp=0.70 / qpmin=0 / qpmax=51 / qpstep=4 / cplxblur=15.0 / qblur=0.5 / vbv_maxrate=50000 / vbv_bufsize=62500 / nal_hrd=none / filler=0 / ip_ratio=1.40 / pb_ratio=1.30 / aq=2:1.00
Default : Да
Forced : Нет

Аудио
ID : 2
Format : AC-3
Format/Info : Audio Coding 3
Mode extension : CM (complete main)
Format settings, Endianness : Big
Codec ID : A_AC3
Duration : 2 ч. 28 м.
Bit rate mode : Постоянный
Bit rate : 448 Кбит/сек
Channel(s) : 6 каналов
Channel positions : Front: L C R, Side: L R, LFE
Sampling rate : 48,0 КГц
Frame rate : 31,250 кадров/сек (1536 spf)
Compression mode : С потерями
Stream size : 477 Мбайт (16%)
Language : Russian
Default : Да
Forced : Нет

Текст #1
ID : 3
Format : UTF-8
Codec ID : S_TEXT/UTF8
Codec ID/Info : UTF-8 Plain Text
Duration : 1 ч. 1 м.
Bit rate : 5 бит/сек
Count of elements : 34
Stream size : 2,56 Кбайт (0%)
Title : Rus Forced
Language : Russian
Default : Да
Forced : Нет

Текст #2
ID : 4
Format : UTF-8
Codec ID : S_TEXT/UTF8
Codec ID/Info : UTF-8 Plain Text
Duration : 2 ч. 16 м.
Bit rate : 45 бит/сек
Count of elements : 891
Stream size : 45,5 Кбайт (0%)
Title : Rus Full
Language : Russian
Default : Нет
Forced : Нет

Скриншоты

Автор рипа: _Bathory_


Скачать Wolyn.2016.BDRip-AVC_by_Bathory.mkv.torrent

просмотры: 1

Post Comment