Детектив Зарубежные фильмы

Солярис / Solaris (2002) BDRip 720p | D, Р, A

Информация о фильме
Название: Солярис
Оригинальное название: Solaris
Год выхода: 2002
Жанр: фантастика, драма, мелодрама, детектив
Режиссер: Стивен Содерберг
В ролях: Джордж Клуни, Наташа МакЭлхоун, Виола Дэвис, Джереми Дейвис, Ульрих Тукур, Джон Чо, Морган Руслер, Шэйн Скелтон, Донна Кимболл, Майкл Энсайн

О фильме: На космическую станцию, движущуюся по орбите загадочной планеты Солярис, прибывает психолог Крис Кельвин. Его цель — понять, что за необъяснимые вещи происходят с работающими там учеными. Крис обнаруживает, что руководитель экспедиции и его старый друг погиб при таинственных обстоятельствах. А вскоре и сам сталкивается с силой, стоящей за гранью человеческого понимания…

Страна: США
Студия: Lightstorm Entertainment, Twentieth Century Fox Film Corporation
Продолжительность: 01:38:43
Перевод: Профессиональный (дублированный) + Профессиональный (многоголосый, закадровый) DDV + Профессиональный (многоголосый, закадровый) + Авторский (одноголосый, закадровый) Е.Рудой

Файл
Качество: BDRip 720p
Формат: Matroska
Видео: 1280×546 at 23.976 fps, [email protected], ~5107 kbps avg
Аудио#1: Russian: 48 kHz, AC3, 3/2 (L,C,R,l,r) + LFE ch, ~448 kbps avg |Дубляж|
Аудио#2: Russian: 48 kHz, AC3, 3/2 (L,C,R,l,r) + LFE ch, ~448 kbps avg |Многоголосый закадровый, DDV|
Аудио#3: Russian: 48 kHz, AC3, 2/0 (L,R) ch, ~384 kbps avg |Многоголосый закадровый|
Аудио#4: Russian: 48 kHz, AC3, 3/2 (L,C,R,l,r) + LFE ch, ~448 kbps avg |Авторский, Е.Рудой|
Аудио#5: English: 48 kHz, AC3, 3/2 (L,C,R,l,r) + LFE ch, ~448 kbps avg
Субтитры: Russian, English

***Сохранены оригинальные главы как на Blu-ray.
***Релиз — msltel.

Знаете ли вы, что…

  • Фильм снят по мотивам романа Станислава Лема «Солярис» (Solaris, 1961).
  • В фильме с целью сделать имена более удобно звучащими для англоязычной аудитории были изменены оригинальные имена героев: Снаут в фильме стал Сноу, Хари превратилась в Рею, Сарториус стал чернокожей женщиной по имени Гордон, а имя Гибаряна звучит как Джибариан.
  • В самом начале съёмок фильм предполагался как ремейк одноименного фильма Тарковского.
  • MediaInfo
    Общее
    Уникальный идентификатор : 196774638398601566082258025362542385846 (0x94096AB5F24FC39D9603D8903A295AB6)
    Полное имя : Solaris.2002.BDRip.720p by msltel.mkv
    Формат : Matroska
    Версия формата : Version 4 / Version 2
    Размер файла : 5,12 Гбайт
    Продолжительность : 1 ч. 38 м.
    Общий поток : 7431 Кбит/сек
    Название фильма : Rip by msltel
    Дата кодирования : UTC 2017-05-29 16:33:03
    Программа кодирования : mkvmerge v8.2.0 ('World of Adventure') 64bit
    Библиотека кодирования : libebml v1.3.1 + libmatroska v1.4.2

    Видео
    Идентификатор : 1
    Формат : AVC
    Формат/Информация : Advanced Video Codec
    Профиль формата : [email protected]
    Параметр CABAC формата : Да
    Параметр ReFrames формата : 9 кадров
    Идентификатор кодека : V_MPEG4/ISO/AVC
    Продолжительность : 1 ч. 38 м.
    Битрейт : 5107 Кбит/сек
    Ширина : 1280 пикселей
    Высота : 546 пикселей
    Соотношение сторон : 2,35:1
    Режим частоты кадров : Постоянный
    Частота кадров : 23,976 кадра/сек
    Цветовое пространство : YUV
    Субдискретизация насыщенности : 4:2:0
    Битовая глубина : 8 бит
    Тип развёртки : Прогрессивная
    Бит/(Пиксели*Кадры) : 0.305
    Размер потока : 3,52 Гбайт (69%)
    Библиотека кодирования : x264 core 146 r2538 121396c
    Настройки программы : cabac=1 / ref=9 / deblock=1:-3:-2 / analyse=0x3:0x113 / me=umh / subme=11 / psy=1 / psy_rd=1.00:0.15 / mixed_ref=1 / me_range=32 / chroma_me=1 / trellis=2 / 8x8dct=1 / cqm=0 / deadzone=21,11 / fast_pskip=0 / chroma_qp_offset=-3 / threads=6 / lookahead_threads=1 / sliced_threads=0 / nr=0 / decimate=1 / interlaced=0 / bluray_compat=0 / constrained_intra=0 / bframes=13 / b_pyramid=2 / b_adapt=2 / b_bias=0 / direct=1 / weightb=1 / open_gop=0 / weightp=2 / keyint=230 / keyint_min=23 / scenecut=40 / intra_refresh=0 / rc_lookahead=40 / rc=crf / mbtree=0 / crf=18.8 / qcomp=0.60 / qpmin=0 / qpmax=69 / qpstep=4 / vbv_maxrate=62500 / vbv_bufsize=78125 / crf_max=0.0 / nal_hrd=none / filler=0 / ip_ratio=1.40 / pb_ratio=1.30 / aq=1:1.00
    Язык : English
    Default : Да
    Forced : Нет

    Аудио #1
    Идентификатор : 2
    Формат : AC-3
    Формат/Информация : Audio Coding 3
    Расширение режима : CM (complete main)
    Параметр Endianness формата : Big
    Идентификатор кодека : A_AC3
    Продолжительность : 1 ч. 38 м.
    Вид битрейта : Постоянный
    Битрейт : 448 Кбит/сек
    Каналы : 6 каналов
    Расположение каналов : Front: L C R, Side: L R, LFE
    Частота : 48,0 КГц
    Битовая глубина : 16 бит
    Метод сжатия : С потерями
    Размер потока : 316 Мбайт (6%)
    Заголовок : DUB
    Язык : Russian
    Default : Да
    Forced : Нет

    Аудио #2
    Идентификатор : 3
    Формат : AC-3
    Формат/Информация : Audio Coding 3
    Расширение режима : CM (complete main)
    Параметр Endianness формата : Big
    Идентификатор кодека : A_AC3
    Продолжительность : 1 ч. 38 м.
    Вид битрейта : Постоянный
    Битрейт : 448 Кбит/сек
    Каналы : 6 каналов
    Расположение каналов : Front: L C R, Side: L R, LFE
    Частота : 48,0 КГц
    Битовая глубина : 16 бит
    Метод сжатия : С потерями
    Размер потока : 316 Мбайт (6%)
    Заголовок : MVO (DDV)
    Язык : Russian
    Default : Нет
    Forced : Нет

    Аудио #3
    Идентификатор : 4
    Формат : AC-3
    Формат/Информация : Audio Coding 3
    Расширение режима : CM (complete main)
    Параметр Endianness формата : Big
    Идентификатор кодека : A_AC3
    Продолжительность : 1 ч. 38 м.
    Вид битрейта : Постоянный
    Битрейт : 384 Кбит/сек
    Каналы : 2 канала
    Расположение каналов : Front: L R
    Частота : 48,0 КГц
    Битовая глубина : 16 бит
    Метод сжатия : С потерями
    Размер потока : 271 Мбайт (5%)
    Заголовок : MVO
    Язык : Russian
    Default : Нет
    Forced : Нет

    Аудио #4
    Идентификатор : 5
    Формат : AC-3
    Формат/Информация : Audio Coding 3
    Расширение режима : CM (complete main)
    Параметр Endianness формата : Big
    Идентификатор кодека : A_AC3
    Продолжительность : 1 ч. 38 м.
    Вид битрейта : Постоянный
    Битрейт : 448 Кбит/сек
    Каналы : 6 каналов
    Расположение каналов : Front: L C R, Side: L R, LFE
    Частота : 48,0 КГц
    Битовая глубина : 16 бит
    Метод сжатия : С потерями
    Размер потока : 316 Мбайт (6%)
    Заголовок : AVO (Евгений Рудой)
    Язык : Russian
    Default : Нет
    Forced : Нет

    Аудио #5
    Идентификатор : 6
    Формат : AC-3
    Формат/Информация : Audio Coding 3
    Расширение режима : CM (complete main)
    Параметр Endianness формата : Big
    Идентификатор кодека : A_AC3
    Продолжительность : 1 ч. 38 м.
    Вид битрейта : Постоянный
    Битрейт : 448 Кбит/сек
    Каналы : 6 каналов
    Расположение каналов : Front: L C R, Side: L R, LFE
    Частота : 48,0 КГц
    Битовая глубина : 16 бит
    Метод сжатия : С потерями
    Размер потока : 316 Мбайт (6%)
    Заголовок : original
    Язык : English
    Default : Нет
    Forced : Нет

    Текст #1
    Идентификатор : 7
    Формат : UTF-8
    Идентификатор кодека : S_TEXT/UTF8
    Идентификатор кодека/Информация : UTF-8 Plain Text
    Заголовок : русские
    Язык : Russian
    Default : Нет
    Forced : Нет

    Текст #2
    Идентификатор : 8
    Формат : UTF-8
    Идентификатор кодека : S_TEXT/UTF8
    Идентификатор кодека/Информация : UTF-8 Plain Text
    Заголовок : английские
    Язык : English
    Default : Нет
    Forced : Нет

    Меню
    00:00:00.000 : en:Chapter 01
    00:15:03.777 : en:Chapter 02
    00:28:53.606 : en:Chapter 03
    00:39:58.187 : en:Chapter 04
    00:51:28.126 : en:Chapter 05
    01:01:59.048 : en:Chapter 06
    01:11:21.860 : en:Chapter 07
    01:18:08.809 : en:Chapter 08
    01:23:53.361 : en:Chapter 09
    01:32:35.466 : en:Chapter 10
    01:38:41.916 : en:Chapter 11
    Скриншоты


    Скачать Solaris.720p.mkv.torrent

    просмотры: 10

    Post Comment