Сериалы

Зверинец / Zoo [02х01-09 из 13] (2015) WEB-DL 720p | NewStudio

Название: Зверинец
Оригинальное название: Zoo
Год выхода: 2016
Жанр: триллер, драма
Режиссер: Стивен А. Эделсон, Брэд Андерсон, Майкл Кэтлман
В ролях: Нонсо Анози, Нора Арнезедер, Билли Бёрк, Кристен Коннолли, Джеймс Волк, Тони Бирд, Ник Хванг, Генри Любатти, Карл Ламбли, Кен Олин

Описание: Триллер рассказывает о массовой атаке животных на людей, захлестнувшей всю планету. В центре сюжета – зоолог Джексон Оз, отвергающий общепринятые взгляды. Находясь в экспедиции в Африке, он начинает замечать странное поведение животных. Когда действия зверей становятся продуманными, скоординированными и приобретают свирепый характер, Оз приступает к поиску разгадки странной пандемии. Пока на планете еще остались места, где человек может укрыться от агрессии братьев меньших…

Страна: США
Продолжительность: 09 х ~ 00:45:00
Перевод: Профессиональный (многоголосый, закадровый) — NewStudio
Перевод: Александра Цернант
Субтитры: Отсутствуют

Автор релиза: karta78

Релиз без рекламы!

Качество: WEB-DL 720p
Формат: MKV
Видео: x264, ~ 3800 kbps, 1280×720 (16:9), 23,976 fps
Аудио: AC3, 48,0 КГц, 6 ch, 384 kbps
Аудио: AC3, 48,0 КГц, 6 ch, 384 kbps

Скриншоты

MI
Общее
Уникальный идентификатор : 208367856894935595320886593398095230562 (0x9CC23083587A6FD5B4FDA7AA6B8C3662)
Полное имя : D:загрузкиZoo (Season 02) NewStudio 720Zoo.s02e01.WEBDL.720p.NewStudio.mkv
Формат : Matroska
Версия формата : Version 4 / Version 2
Размер файла : 1,35 Гбайт
Продолжительность : 40 м.
Общий поток : 4732 Кбит/сек
Дата кодирования : UTC 2016-07-01 13:16:47
Программа кодирования : mkvmerge v8.3.0 ('Over the Horizon') 64bit
Библиотека кодирования : libebml v1.3.1 + libmatroska v1.4.2

Видео
Идентификатор : 1
Формат : AVC
Формат/Информация : Advanced Video Codec
Профиль формата : [email protected]
Параметр CABAC формата : Нет
Параметр ReFrames формата : 2 кадра
Идентификатор кодека : V_MPEG4/ISO/AVC
Продолжительность : 40 м.
Битрейт : 3870 Кбит/сек
Ширина : 1280 пикселей
Высота : 720 пикселей
Соотношение сторон : 16:9
Режим частоты кадров : Постоянный
Частота кадров : 23,976 кадра/сек
Цветовое пространство : YUV
Субдискретизация насыщенности : 4:2:0
Битовая глубина : 8 бит
Тип развёртки : Прогрессивная
Бит/(Пиксели*Кадры) : 0.175
Размер потока : 1,10 Гбайт (82%)
Язык : English
Default : Да
Forced : Нет
Основные цвета : BT.709
Характеристики трансфера : BT.709
Коэффициенты матрицы : BT.709

Аудио #1
Идентификатор : 2
Формат : AC-3
Формат/Информация : Audio Coding 3
Расширение режима : CM (complete main)
Параметр Endianness формата : Big
Идентификатор кодека : A_AC3
Продолжительность : 40 м.
Вид битрейта : Постоянный
Битрейт : 384 Кбит/сек
Каналы : 6 каналов
Расположение каналов : Front: L C R, Side: L R, LFE
Частота : 48,0 КГц
Битовая глубина : 16 бит
Метод сжатия : С потерями
Размер потока : 112 Мбайт (8%)
Язык : Russian
Default : Да
Forced : Нет

Аудио #2
Идентификатор : 3
Формат : AC-3
Формат/Информация : Audio Coding 3
Расширение режима : CM (complete main)
Параметр Endianness формата : Big
Идентификатор кодека : A_AC3
Продолжительность : 40 м.
Вид битрейта : Постоянный
Битрейт : 384 Кбит/сек
Каналы : 6 каналов
Расположение каналов : Front: L C R, Side: L R, LFE
Частота : 48,0 КГц
Битовая глубина : 16 бит
Метод сжатия : С потерями
Размер потока : 112 Мбайт (8%)
Язык : English
Default : Нет
Forced : Нет

Раздача ведется путем добавления новых серий
Когда раздача ведётся путём добавления новых серий, при каждом добавлении создётся новый торрент. Чтобы начать докачку новой серии, пользователям необходимо сделать следующее:
(1) остановить скачивание,
(2) удалить старый торрент у себя из клиента (старые серии удалять не надо),
(3) скачать новый торрент и запустить его у себя в клиенте вместо старого, при этом указать клиенту путь в старую папку, куда и должно происходить скачивание новых серий.
Ваш клиент при этом должен произвести хеширование (проверку) старой папки (если не производит сам — помогите ему сделать это), и будет докачивать только те серии, которых у вас ещё нет. Старые серии при этом не удаляются, а продолжают раздаваться!
Eсли вы уже удалили старые серии, то предотвратить повторную закачку старых серий можно, отжав галочку в соответсвующих местах при запуске нового торрента. По возможности, желательно не удалять старые серии как можно дольше, чтобы релизёр не столько продолжал раздавать старые серии, а смог сконцентрироваться на новых.


Скачать Zoo_Season_02_NewStudio_720.torrent

просмотры: 0

Post Comment