Боевик Зарубежные фильмы

Хитмэн / Sat sau ji wong (1998) BDRip 1080p от Freak Chaos | P

Информация о фильме
Название: Хитмэн
Оригинальное название: Sat sau ji wong
Год выхода: 1998
Жанр: Боевик, комедия
Режиссер: Вэй Тунг
В ролях: Джет Ли, Эрик Цан, Саймон Ям, Джиджи Люн, Тимми Хо, Квонг Ким Йип, Джон Чинг, Кейдзи Сато

О фильме:
В Гонконге объявился «Король убийц» — наемный убийца, который работает не из-за денег, и убирает только опасных преступников. Его очередной жертвой становится престарелый главарь якудза, совершенно отвратительный тип, который во время войны издевался над китайскими девушками.
Проблема в том, что незадолго до смерти японец основал специальный фонд, 100 миллн. американских долларов из которого получит тот, кто отомстит убийце. Чтобы получить деньги в Гонг Конг слетаются «киллеры» со всего света, среди них оказался молодой парень по имени Фэй. Его привел агент-мошенник Нгок Ло, собирающийся чужими руками заработать большие деньги.

Страна: Гонконг
Продолжительность: 01:41:18
Перевод: Профессиональный многоголосый закадровый

Файл
Кодек: AVC, x264
Качество: BD-Rip 1080p
Видео: 1920×1024 (1,85:1), 8888 kbps, 24 fps
Звук: AC-3, 384 kbps, 48 KHz, 6 channels

MediaInfo
General
Unique ID : 193094223561877541848352303974109266426 (0x9144983FDF1D226986AFB82DB61DC1FA)
Complete name : X.FILMS.Гонконг.Хитмэн [Sat sau ji wong, 1998] 1080p.mkv
Format : Matroska
Format version : Version 2
File size : 6.75 GiB
Duration : 1h 44mn
Overall bit rate : 9 271 Kbps
Encoded date : UTC 2016-08-16 15:43:21
Writing application : mkvmerge v5.2.1 ('A Far Off Place') built on Jan 2 2012 23:21:10
Writing library : libebml v1.2.3 + libmatroska v1.3.0

Video
ID : 1
Format : AVC
Format/Info : Advanced Video Codec
Format profile : [email protected]
Format settings, CABAC : Yes
Format settings, ReFrames : 4 frames
Muxing mode : Header stripping
Codec ID : V_MPEG4/ISO/AVC
Duration : 1h 44mn
Bit rate : 8 888 Kbps
Width : 1 920 pixels
Height : 1 024 pixels
Display aspect ratio : 1.85:1
Frame rate mode : Constant
Frame rate : 24.000 fps
Color space : YUV
Chroma subsampling : 4:2:0
Bit depth : 8 bits
Scan type : Progressive
Bits/(Pixel*Frame) : 0.188
Stream size : 6.34 GiB (94%)
Title : Hitman (1998)
Writing library : x264 core 120 r2164 da19765
Encoding settings : cabac=1 / ref=3 / deblock=1:0:0 / analyse=0x3:0x113 / me=hex / subme=7 / psy=1 / psy_rd=1.00:0.00 / mixed_ref=1 / me_range=16 / chroma_me=1 / trellis=1 / 8x8dct=1 / cqm=0 / deadzone=21,11 / fast_pskip=1 / chroma_qp_offset=-2 / threads=3 / sliced_threads=0 / nr=0 / decimate=1 / interlaced=0 / bluray_compat=0 / constrained_intra=0 / bframes=3 / b_pyramid=2 / b_adapt=1 / b_bias=0 / direct=1 / weightb=1 / open_gop=0 / weightp=2 / keyint=240 / keyint_min=24 / scenecut=40 / intra_refresh=0 / rc_lookahead=40 / rc=2pass / mbtree=1 / bitrate=8888 / ratetol=1.0 / qcomp=0.60 / qpmin=0 / qpmax=69 / qpstep=4 / cplxblur=20.0 / qblur=0.5 / ip_ratio=1.40 / aq=1:1.00
Language : English
Default : Yes
Forced : No

Audio
ID : 2
Format : AC-3
Format/Info : Audio Coding 3
Mode extension : CM (complete main)
Format settings, Endianness : Big
Muxing mode : Header stripping
Codec ID : A_AC3
Duration : 1h 44mn
Bit rate mode : Constant
Bit rate : 384 Kbps
Channel(s) : 6 channels
Channel positions : Front: L C R, Side: L R, LFE
Sampling rate : 48.0 KHz
Frame rate : 31.250 fps (1536 spf)
Compression mode : Lossy
Stream size : 286 MiB (4%)
Title : Многоголосый
Language : Russian
Default : Yes
Forced : No

Скриншоты


Скачать Hitmjen_Sat_sau_ji_wong_1998_1080p.mkv.torrent

просмотры: 0

Post Comment