Биография Зарубежные фильмы

Сила воли / Race (2016) HDRip от Portablius | iTunes

Информация о фильме
Название: Сила воли
Оригинальное название: Race
Год выхода: 2016
Жанр: драма, биография, спорт
Режиссер: Стивен Хопкинс
В ролях: Стэфан Джеймс, Джейсон Судейкис, Эли Гори, Шанис Бэнтон, Кэрис ван Хаутен, Джереми Айронс, Уильям Хёрт, Давид Кросс

О фильме: История легендарного чернокожего атлета Джесси Оуэнса, чьё невероятное упорство привело его на Олимпийские игры 1936 года в нацистском Берлине. Встретившиеся на его пути преграды и искушения — ничто в сравнении с грандиозным забегом, за которым следил весь мир. Затаив дыхание, одни надеялись на победу Джесси как на символ справедливости и достоинства, а другие жаждали его поражения во имя триумфа идеологии. Несколько секунд — и Джесси ворвался в историю, бросив дерзкий вызов самому Гитлеру…

Страна: Канада, Германия
Студия: Forecast Pictures, JoBro Productions & Film Finance, Solofilms, Trinity Race
Продолжительность: 02:14:27
Перевод: Профессиональный (полное дублирование) | iTunes
Субтитры: Нет

Семпл

Файл
Кодек: XviD
Качество: HDRip
Видео: 640×272 (2.35:1), 23.976 fps, XviD build 73 ~645 kbps avg, 0.15 bit/pixel
Звук: 48 kHz, MPEG Layer 3, 2 ch, ~128.00 kbps avg

MediaInfo
General
Complete name : Race.2016.HDRip.ot.Portablius.avi
Format : AVI
Format/Info : Audio Video Interleave
File size : 753 MiB
Duration : 2h 14mn
Overall bit rate : 783 Kbps
Writing application : VirtualDubMod 1.5.10.3 | www.virtualdub-fr.org || (build 2550/release)
Writing library : VirtualDubMod build 2550/release

Video
ID : 0
Format : MPEG-4 Visual
Format profile : Advanced [email protected]
Format settings, BVOP : 1
Format settings, QPel : No
Format settings, GMC : No warppoints
Format settings, Matrix : Custom
Codec ID : XVID
Codec ID/Hint : XviD
Duration : 2h 14mn
Bit rate : 646 Kbps
Width : 640 pixels
Height : 272 pixels
Display aspect ratio : 2.35:1
Frame rate : 23.976 fps
Color space : YUV
Chroma subsampling : 4:2:0
Bit depth : 8 bits
Scan type : Progressive
Compression mode : Lossy
Bits/(Pixel*Frame) : 0.155
Stream size : 621 MiB (82%)
Writing library : XviD 73

Audio
ID : 1
Format : MPEG Audio
Format version : Version 1
Format profile : Layer 3
Codec ID : 55
Codec ID/Hint : MP3
Duration : 2h 14mn
Bit rate mode : Constant
Bit rate : 128 Kbps
Channel(s) : 2 channels
Sampling rate : 48.0 KHz
Compression mode : Lossy
Stream size : 123 MiB (16%)
Alignment : Aligned on interleaves
Interleave, duration : 42 ms (1.00 video frame)
Interleave, preload duration : 504 ms
Writing library : LAME3.99r
Encoding settings : -m s -V 4 -q 2 -lowpass 17 -b 128

Скриншоты


Скачать Race.2016.HDRip.ot.Portablius.avi.torrent

просмотры: 4

Post Comment