Телевизор

Прорыв (2003) DVB от AND03AND

Информация о фильме
Название: Прорыв
Год выхода: 2003
Жанр: Документальный
Режиссер: Князев Николай

О фильме:
Герои фильма – участники операции «Багратион», начавшейся прорывом немецкой обороны 23 июня 1944 года и закончившейся блестящей победой – освобождением Минска и Беларуси при огромных потерях противника.

Бывшие бойцы – старшина А.Головко, ефрейтор М.Иванушкина, командир партизанского отряда П.Гончаров сегодня уже пожилые люди. Однако события тех лет запечатлелись в их памяти с мельчайшими подробностями. До сих пор помнят они тот ужас, горе, страдания и страх, которые нес с собой каждый день войны.

Доп. информация:
Автор сценария: Князев Николай Петрович
Оператор-постановщик: Н.Сидорченко

Запись потока *.ts с наземного цифрового телеканала "Беларусь 3".

Благодарность: за помощь с недостающим материалом Bartimeyse и PavelDAS. Обоим большое спасибо!

Страна: Республика Беларусь
Студия: Беларусьфильм
Продолжительность: 00:19:19
Перевод: не требует

Файл
Кодек: AVC (H264)
Качество: DVB
Видео: MPEG4 Video (H264) 720(785)x576 (49:36) 25fps, 2 265 Kbps
Звук: MPEG Audio 48000Hz stereo 256kbps

Семпл

MediaInfo

General
ID : 1 (0x1)
Complete name : D:Новая земля 201 Документальный фильмыВОВ и другие войныПрорыв (2003)Прорыв (2003).ts
Format : MPEG-TS
File size : 367 MiB
Duration : 19mn 19s
Overall bit rate mode : Variable
Overall bit rate : 2 655 Kbps

Video
ID : 513 (0x201)
Menu ID : 1 (0x1)
Format : AVC
Format/Info : Advanced Video Codec
Format profile : [email protected]
Format settings, CABAC : Yes
Format settings, ReFrames : 4 frames
Codec ID : 27
Duration : 19mn 19s
Bit rate : 2 265 Kbps
Width : 720 pixels
Height : 576 pixels
Display aspect ratio : 4:3
Frame rate : 25.000 fps
Standard : PAL
Color space : YUV
Chroma subsampling : 4:2:0
Bit depth : 8 bits
Scan type : MBAFF
Scan order : Top Field First
Bits/(Pixel*Frame) : 0.218
Stream size : 313 MiB (85%)
Color primaries : BT.601 PAL
Transfer characteristics : BT.470 System B, BT.470 System G
Matrix coefficients : BT.601
Color range : Limited

Audio
ID : 514 (0x202)
Menu ID : 1 (0x1)
Format : MPEG Audio
Format version : Version 1
Format profile : Layer 2
Codec ID : 3
Duration : 19mn 19s
Bit rate mode : Constant
Bit rate : 256 Kbps
Channel(s) : 2 channels
Sampling rate : 48.0 KHz
Compression mode : Lossy
Stream size : 35.4 MiB (10%)
Language : English

Скриншоты


Скачать Proryv_2003.ts.torrent

просмотры: 2

Post Comment