Сериалы

Кризис нежного возраста [01-06 из 08] (2016) WEB-DLRip-AVC от ExKinoRay

Информация о фильме
Оригинальное название: Кризис нежного возраста
Год выпуска: 2016
Жанр: Мелодрама, комедия
Режиссер: Наталья Меркулова, Алексей Чупов
В ролях: Мария Поезжаева, Максим Виторган, Алиса Гребенщикова, Евгений Цыганов, Ксения Суркова, Кристина Исайкина, Екатерина Захарова, Александр Грашин, Руслан Ягудин, Никита Волков

О фильме:
Это история про трех лучших подруг: Шуру, Юлю и Аню. Им по 18 лет, все самое важное в жизни происходит у них в первый раз, и они подходят ко всему с юношеским рвением и максимализмом. Шура Ермакова влюбляется в преподавателя и в тот же день узнает, что в ее семью вернулась мама, которая бросила ее в детстве. Юля Кузьмина никак не может разорвать отношения со своим парнем-полицейским, который ей постоянно изменяет, а Аня Силкина, используя связи своего папы-продюсера, раз в неделю придумывает себе новую карьеру.

Выпущено: Россия, Кинокомпания «Магнум», ТНТ
Продолжительность: 6 х ~ 00:45:00
Перевод: Не требуется

Файл
Кодек: х264
Качество: WEBDLRip-AVC
Видео: 1024×576 (16:9), 25,000 fps, х264 ~ 2000 kbps avg, 0.136 bit/pixel
Аудио: 48,0 kHz, Audio Coding 3, 2 ch, ~192 kbps avg

MI
Общее
Уникальный идентификатор : 220307151236614924399598456727266465343 (0xA5BD9D2C04D3A43E87850B6A3685163F)
Полное имя : D:ВидеоKrizis.neznogo.vozrasta.(2016)WEB-DLRip-AVC by Vovan366(ExKinoRay)Кризис нежного возраста (01.seriya).2016.WEB-DLRip-AVC by Vovan366(ExKinoRay).mkv
Формат : Matroska
Версия формата : Version 2
Размер файла : 647 Мбайт
Продолжительность : 41 м.
Общий поток : 2193 Кбит/сек
Дата кодирования : UTC 2016-08-09 16:20:00
Программа кодирования : mkvmerge v7.8.0 ('River Man') 32bit built on Apr 3 2015 12:11:22
Библиотека кодирования : libebml v1.3.1 + libmatroska v1.4.2

Видео
Идентификатор : 1
Формат : AVC
Формат/Информация : Advanced Video Codec
Профиль формата : [email protected]
Параметр CABAC формата : Да
Параметр ReFrames формата : 10 кадров
Идентификатор кодека : V_MPEG4/ISO/AVC
Продолжительность : 41 м.
Битрейт : 2000 Кбит/сек
Ширина : 1024 пикселя
Высота : 576 пикселей
Соотношение сторон : 16:9
Режим частоты кадров : Постоянный
Частота кадров : 25,000 кадров/сек
Цветовое пространство : YUV
Субдискретизация насыщенности : 4:2:0
Битовая глубина : 8 бит
Тип развёртки : Прогрессивная
Бит/(Пиксели*Кадры) : 0.136
Размер потока : 578 Мбайт (89%)
Библиотека кодирования : x264 core 146 r2538 121396c
Настройки программы : cabac=1 / ref=10 / deblock=1:-3:-3 / analyse=0x3:0x113 / me=umh / subme=10 / psy=1 / psy_rd=1.00:0.05 / mixed_ref=1 / me_range=48 / chroma_me=1 / trellis=2 / 8x8dct=1 / cqm=0 / deadzone=21,11 / fast_pskip=0 / chroma_qp_offset=-3 / threads=6 / lookahead_threads=1 / sliced_threads=0 / nr=0 / decimate=0 / interlaced=0 / bluray_compat=0 / constrained_intra=0 / bframes=10 / b_pyramid=2 / b_adapt=2 / b_bias=0 / direct=3 / weightb=1 / open_gop=0 / weightp=2 / keyint=250 / keyint_min=25 / scenecut=40 / intra_refresh=0 / rc_lookahead=40 / rc=2pass / mbtree=0 / bitrate=2000 / ratetol=1.0 / qcomp=0.60 / qpmin=0 / qpmax=69 / qpstep=4 / cplxblur=20.0 / qblur=0.5 / vbv_maxrate=14000 / vbv_bufsize=14000 / nal_hrd=none / filler=0 / ip_ratio=1.40 / pb_ratio=1.30 / aq=1:1.00
Default : Да
Forced : Нет
Основные цвета : BT.709
Характеристики трансфера : BT.709
Коэффициенты матрицы : BT.709

Аудио
Идентификатор : 2
Формат : AC-3
Формат/Информация : Audio Coding 3
Расширение режима : CM (complete main)
Параметр Endianness формата : Big
Идентификатор кодека : A_AC3
Продолжительность : 41 м.
Вид битрейта : Постоянный
Битрейт : 192 Кбит/сек
Каналы : 2 канала
Расположение каналов : Front: L R
Частота : 48,0 КГц
Битовая глубина : 16 бит
Метод сжатия : С потерями
Размер потока : 56,7 Мбайт (9%)
Default : Да
Forced : Нет

Скриншоты


Релиз от:
Rip by: Vovan366


Скачать Krizis.neznogo.vozrasta.2016WEB-DLRip-AVC_by_Vo.torrent

просмотры: 0

Post Comment