Драма Зарубежные фильмы

Книга джунглей / The Jungle Book (2016) BDRip 720p от Scarabey | iTunes

Год выпуска: 2016
Страна: Великобритания, США
Жанр: фэнтези, драма, приключения, семейный
Продолжительность: 01:41:33
Перевод: Профессиональный (полное дублирование) [iTunes]
Cубтитры: нет

Режиссер: Джон Фавро / Jon Favreau

В ролях: Нил Сети, Билл Мюррэй, Бен Кингсли, Идрис Эльба, Лупита Нионго, Скарлетт Йоханссон, Джанкарло Эспозито, Кристофер Уокен, Гарри Шендлинг, Брайтон Роуз

Описание: Непримиримая борьба с опасным и внушающим страх тигром Шерханом вынуждает Маугли покинуть волчью стаю и отправиться в захватывающее путешествие. На пути мальчика ждут удивительные открытия и запоминающиеся встречи с пантерой Багирой, медведем Балу, питоном Каа и другими обитателями дремучих джунглей.

Качество видео: BDRip 720p
Формат видео: MKV

Видео: 1280х692, 23.976 fps, AVC ~5390 kbps avg
Аудио: 48 kHz, AC3 Dolby Digital, 3/2 (L,C,R,l,r) + LFE ch, ~384 kbps

Релиз от:

АНОНСЫ МОИХ РАЗДАЧ!



МедиаИнфо

The.Jungle.Book.2016_720p_BDRip_[scarabey.org].mkv
Формат : Matroska
Версия формата : Version 4 / Version 2
Размер файла : 4,36 Гбайт
Продолжительность : 1 ч. 45 м.
Общий поток : 5891 Кбит/сек
Дата кодирования : UTC 2016-08-16 16:08:45
Программа кодирования : mkvmerge v6.1.0 ('Old Devil') built on Mar 4 2013 09:10:42
Библиотека кодирования : libebml v1.3.0 + libmatroska v1.4.0

Видео
Идентификатор : 1
Формат : AVC
Формат/Информация : Advanced Video Codec
Профиль формата : [email protected]
Параметр CABAC формата : Да
Параметр ReFrames формата : 9 кадров
Идентификатор кодека : V_MPEG4/ISO/AVC
Продолжительность : 1 ч. 45 м.
Битрейт : 5390 Кбит/сек
Ширина : 1280 пикселей
Высота : 692 пикселя
Соотношение сторон : 1,85:1
Режим частоты кадров : Постоянный
Частота кадров : 23,976 (24000/1001) кадра/сек
Цветовое пространство : YUV
Субдискретизация насыщенности : 4:2:0
Битовая глубина : 8 бит
Тип развёртки : Прогрессивная
Бит/(Пиксели*Кадры) : 0.254
Размер потока : 3,99 Гбайт (91%)
Библиотека кодирования : x264 core 148 r2692kMod 64f4e24
Настройки программы : cabac=1 / ref=9 / deblock=1:-3:-3 / analyse=0x3:0x113 / me=umh / subme=10 / psy=1 / fade_compensate=0.00 / psy_rd=1.00:0.00 / mixed_ref=1 / me_range=32 / chroma_me=1 / trellis=2 / 8x8dct=1 / cqm=0 / deadzone=21,11 / fast_pskip=0 / chroma_qp_offset=-2 / threads=42 / lookahead_threads=5 / sliced_threads=0 / nr=0 / decimate=1 / interlaced=0 / bluray_compat=0 / constrained_intra=0 / fgo=0 / bframes=8 / b_pyramid=2 / b_adapt=2 / b_bias=0 / direct=3 / weightb=1 / open_gop=0 / weightp=2 / keyint=250 / keyint_min=23 / scenecut=40 / intra_refresh=0 / rc=crf / mbtree=0 / crf=16.8000 / qcomp=0.60 / qpmin=0 / qpmax=69 / qpstep=4 / ip_ratio=1.40 / pb_ratio=1.30 / aq=3:0.80
Язык : English
Default : Да
Forced : Нет

Аудио
Идентификатор : 2
Формат : AC-3
Формат/Информация : Audio Coding 3
Расширение режима : CM (complete main)
Параметр Endianness формата : Big
Идентификатор кодека : A_AC3
Продолжительность : 1 ч. 45 м.
Вид битрейта : Постоянный
Битрейт : 384 Кбит/сек
Каналы : 6 каналов
Расположение каналов : Front: L C R, Side: L R, LFE
Частота : 48,0 КГц
Частота кадров : 31,250 кадров/сек (1536 spf)
Метод сжатия : С потерями
Размер потока : 291 Мбайт (7%)
Заголовок : Дубляж — iTunes
Язык : Russian
Default : Да
Forced : Нет

Меню
00:00:00.000 : en:00:00:00.000
00:00:48.215 : en:00:00:48.215
00:05:15.315 : en:00:05:15.315
00:09:02.459 : en:00:09:02.459
00:12:42.178 : en:00:12:42.178
00:16:34.452 : en:00:16:34.452
00:21:20.029 : en:00:21:20.029
00:27:15.133 : en:00:27:15.133
00:35:04.144 : en:00:35:04.144
00:43:21.724 : en:00:43:21.724
00:48:05.132 : en:00:48:05.132
00:53:29.248 : en:00:53:29.248
00:58:03.271 : en:00:58:03.271
01:05:46.442 : en:01:05:46.442
01:10:35.523 : en:01:10:35.523
01:17:01.325 : en:01:17:01.325
01:20:48.927 : en:01:20:48.927
01:24:46.540 : en:01:24:46.540
01:30:32.969 : en:01:30:32.969
01:35:53.206 : en:01:35:53.206


Скачать The.Jungle.Book.2016_720p_BDRip_scarabey.org.torrent

просмотры: 4

Post Comment