Драма Зарубежные фильмы

Книга джунглей / The Jungle Book (2016) BDRip 1080p | 3D-Video | HSBS | iTunes

Книга джунглей / The Jungle Book

Страна: США
Производство: Walt Disney Pictures
Год выпуска: 2016
Жанр: фэнтези, драма, приключения, семейный
Продолжительность: 01:45:55

Режиссер: Джон Фавро
Авторы сценария: Джастин Маркс, Редьярд Киплинг

В ролях: Нил Сетхи, Билл Мюррей, Бен Кингсли, Идрис Эльба, Лупита Нионго, Скарлетт Йоханссон, Джанкарло Эспозито, Кристофер Уокен

Описание: Непримиримая борьба с опасным и внушающим страх тигром Шерханом вынуждает Маугли покинуть волчью стаю и отправиться в захватывающее путешествие. На пути мальчика ждут удивительные открытия и запоминающиеся встречи с пантерой Багирой, медведем Балу, питоном Каа и другими обитателями дремучих джунглей…

Перевод: Профессиональный (полное дублирование) | iTunes
Субтитры: русские (full), английские (full + SDH)


Качество: BDRip 1080p
Формат: МКV
Видео кодек: AVC
Аудио кодек: АС3 | DTS
Видео: 1920×1080 (16:9), 23.976 fps, MPEG-4 AVC ~9 225 kbps avg, 0.186 bit/pixel
Аудио №1: 48.0 kHz, AC3 Dolby Digital, 3/2 (L,C,R,l,r) + LFE ch, ~384 kbps | RUS
Аудио №2: 48.0 kHz, Digital Theater Systems, 3/2 (L,C,R,l,r) + LFE ch, ~1509 kbps | ENG
Формат субтитров: UTF-8 Plain Text

Формат 3D: Half SideBySide / Горизонтальная анаморфная стереопара
Порядок ракурсов: левый ракурс первый

Бюджет: $175 000 000
Дата премьеры (мир): 4 апреля 2016
Дата премьеры (РФ): 7 апреля 2016, «WDSSPR»

Релиз от:

Media Info
General
Unique ID : 195948022258951291540329718258081825587 (0x936A37637289A18698DD905FCEBD8333)
Complete name : The.Jungle.Book.2016.D.BDRip.1080p.3D.HSBS.selezen.mkv
Format : Matroska
Format version : Version 4 / Version 2
File size : 8.22 GiB
Duration : 1h 45mn
Overall bit rate : 11.1 Mbps
Movie name : The.Jungle.Book.2016.D.BDRip.1080p.3D.HSBS.selezen
Encoded date : UTC 2016-08-17 09:37:58
Writing application : mkvmerge v8.3.0 ('Over the Horizon') 64bit
Writing library : libebml v1.3.1 + libmatroska v1.4.2

Video
ID : 1
Format : AVC
Format/Info : Advanced Video Codec
Format profile : [email protected]
MultiView_Count : 2
MultiView_Layout : Side by Side (left eye first)
Format settings, CABAC : Yes
Format settings, ReFrames : 4 frames
Codec ID : V_MPEG4/ISO/AVC
Duration : 1h 45mn
Bit rate : 9 225 Kbps
Width : 1 920 pixels
Height : 1 080 pixels
Display aspect ratio : 16:9
Frame rate mode : Constant
Frame rate : 23.976 (24000/1001) fps
Color space : YUV
Chroma subsampling : 4:2:0
Bit depth : 8 bits
Scan type : Progressive
Bits/(Pixel*Frame) : 0.186
Stream size : 6.82 GiB (83%)
Writing library : x264 core 148 r2705 3f5ed56
Encoding settings : cabac=1 / ref=4 / deblock=1:-3:-3 / analyse=0x3:0x113 / me=umh / subme=8 / psy=1 / psy_rd=1.00:0.00 / mixed_ref=1 / me_range=32 / chroma_me=1 / trellis=1 / 8x8dct=1 / cqm=0 / deadzone=21,11 / fast_pskip=0 / chroma_qp_offset=-2 / threads=18 / lookahead_threads=3 / sliced_threads=0 / nr=0 / decimate=1 / interlaced=0 / bluray_compat=0 / constrained_intra=0 / bframes=3 / b_pyramid=2 / b_adapt=2 / b_bias=0 / direct=3 / weightb=1 / open_gop=0 / weightp=2 / keyint=240 / keyint_min=24 / scenecut=40 / intra_refresh=0 / rc_lookahead=50 / rc=2pass / mbtree=1 / bitrate=9225 / ratetol=1.0 / qcomp=0.60 / qpmin=0 / qpmax=69 / qpstep=4 / cplxblur=20.0 / qblur=0.5 / frame-packing=3 / ip_ratio=1.40 / aq=3:0.80
Language : English
Default : Yes
Forced : No
Color range : Limited
Matrix coefficients : BT.709

Audio #1
ID : 2
Format : AC-3
Format/Info : Audio Coding 3
Mode extension : CM (complete main)
Format settings, Endianness : Big
Codec ID : A_AC3
Duration : 1h 45mn
Bit rate mode : Constant
Bit rate : 384 Kbps
Channel(s) : 6 channels
Channel positions : Front: L C R, Side: L R, LFE
Sampling rate : 48.0 KHz
Frame rate : 31.250 fps (1536 spf)
Compression mode : Lossy
Delay relative to video : 800ms
Stream size : 291 MiB (3%)
Title : DUB [iTunes]
Language : Russian
Default : Yes
Forced : No

Audio #2
ID : 3
Format : DTS
Format/Info : Digital Theater Systems
Mode : 16
Format settings, Endianness : Big
Codec ID : A_DTS
Duration : 1h 45mn
Bit rate mode : Constant
Bit rate : 1 509 Kbps
Channel(s) : 6 channels
Channel positions : Front: L C R, Side: L R, LFE
Sampling rate : 48.0 KHz
Frame rate : 93.750 fps (512 spf)
Bit depth : 24 bits
Compression mode : Lossy
Stream size : 1.12 GiB (14%)
Title : Original
Language : English
Default : No
Forced : No

Text #1
ID : 4
Format : UTF-8
Codec ID : S_TEXT/UTF8
Codec ID/Info : UTF-8 Plain Text
Duration : 1h 44mn
Bit rate : 60 bps
Count of elements : 1107
Stream size : 46.0 KiB (0%)
Title : Full
Language : Russian
Default : No
Forced : No

Text #2
ID : 5
Format : UTF-8
Codec ID : S_TEXT/UTF8
Codec ID/Info : UTF-8 Plain Text
Duration : 1h 44mn
Bit rate : 44 bps
Count of elements : 1218
Stream size : 34.1 KiB (0%)
Title : Full
Language : English
Default : No
Forced : No

Text #3
ID : 6
Format : UTF-8
Codec ID : S_TEXT/UTF8
Codec ID/Info : UTF-8 Plain Text
Duration : 1h 44mn
Bit rate : 50 bps
Count of elements : 1410
Stream size : 38.4 KiB (0%)
Title : SDH
Language : English
Default : No
Forced : No

Menu
00:00:00.000 : en:00:00:00.000
00:00:48.214 : en:00:00:48.214
00:05:15.314 : en:00:05:15.314
00:09:02.458 : en:00:09:02.458
00:12:42.178 : en:00:12:42.178
00:16:34.451 : en:00:16:34.451
00:21:20.028 : en:00:21:20.028
00:27:15.133 : en:00:27:15.133
00:35:04.143 : en:00:35:04.143
00:43:21.724 : en:00:43:21.724
00:48:05.132 : en:00:48:05.132
00:53:29.247 : en:00:53:29.247
00:58:03.271 : en:00:58:03.271
01:05:46.442 : en:01:05:46.442
01:10:35.522 : en:01:10:35.522
01:17:01.325 : en:01:17:01.325
01:20:48.927 : en:01:20:48.927
01:24:46.539 : en:01:24:46.539
01:30:32.969 : en:01:30:32.969
01:35:53.205 : en:01:35:53.205
01:45:54.389 : en:01:45:54.389

Скриншоты


Скачать Jungle_book.torrent

просмотры: 4

Post Comment