Мультипликация

Луни Тюнз шоу / The Looney Tunes Show [S01-02] (2011–2013) WEB-DLRip-AVC | Пифагор

Луни Тюнз шоу / Шоу Веселые мелодии / The Looney Tunes Show

Страна: США
Производство: Warner Bros. Animation
Год выпуска: 2011–2013
Жанр: мультфильм, комедия, семейный
Сезоны: 1-2
Серии: 1-52 (из 52)
Продолжительность: 52х ~00:23:00

Режиссеры: Сет Кирсли, Джефф Сьергей, Спайк Брандт
Авторы сценария: Марк Бенкер, Хью Дэвидсон

В ролях: Джефф Бергман, Боб Берген, Фред Армисен, Кристен Уиг, Морис ЛаМарш, Дэймон Джонс, Квеси Боаке, Хью Дэвидсон

Описание: Мультсериал представляет собой совершенно новую интерпретацию «Безумных Мелодий (в народе Луни Тюнз)». В новом шоу сюжет в основном крутится вокруг двух главных персонажей — Багза и Даффи, которые покинули свои родные леса и переехали в город. Им ещё только предстоит встретиться с такими же странными личностями, как Лола, Сильвестр, Порки Пиг и многими другими. Присоединяйтесь к новым историям о приключениях самых наисмешных героев во всей галактике..!

Перевод: Профессиональный (полное дублирование) | студия Пифагор
Субтитры: нет


Качество: WEB-DLRip-AVC
Формат: МКV
Видео кодек: AVC
Аудио кодек: АС3
Видео: 1024×576 (16:9), 23.976 fps, MPEG-4 AVC ~2 200 kbps avg
Аудио №1: 48.0 kHz, AC3 Dolby Digital, 2/0 (L,R) ch, ~192 kbps | RUS
Аудио №2: 48.0 kHz, AC3 Dolby Digital, 2/0 (L,R) ch, ~192 kbps | ENG

Дата премьеры (мир): 3 мая 2011

Media Info
General
Уникальный идентификатор : 179213613632838076623111882017775110785 (0x86D34957A73CA1AE9DB7C3B3B0194A81)
Полное имя : Шоу Веселые мелодии. Все сезоны (WEB-DLRip AVC)1 сезон1-01. Лучшие друзья.mkv
Формат : Matroska
Версия формата : Version 2
Размер файла : 419 Мбайт
Продолжительность : 22 м.
Общий поток : 2588 Кбит/сек
Дата кодирования : UTC 2016-08-04 17:05:32
Программа кодирования : mkvmerge v7.8.0 ('River Man') 32bit built on Apr 3 2015 12:11:22
Библиотека кодирования : libebml v1.3.1 + libmatroska v1.4.2

Видео
Идентификатор : 1
Формат : AVC
Формат/Информация : Advanced Video Codec
Профиль формата : [email protected]
Параметр CABAC формата : Да
Параметр ReFrames формата : 12 кадров
Идентификатор кодека : V_MPEG4/ISO/AVC
Продолжительность : 22 м.
Битрейт : 2200 Кбит/сек
Ширина : 1024 пикселя
Высота : 576 пикселей
Соотношение сторон : 16:9
Режим частоты кадров : Постоянный
Частота кадров : 23,976 кадра/сек
Цветовое пространство : YUV
Субдискретизация насыщенности : 4:2:0
Битовая глубина : 8 бит
Тип развёртки : Прогрессивная
Бит/(Пиксели*Кадры) : 0.156
Размер потока : 349 Мбайт (83%)
Библиотека кодирования : x264 core 148 r2638 7599210
Настройки программы : cabac=1 / ref=12 / deblock=1:-2:-2 / analyse=0x3:0x113 / me=umh / subme=10 / psy=1 / psy_rd=1.05:0.10 / mixed_ref=1 / me_range=32 / chroma_me=1 / trellis=2 / 8x8dct=1 / cqm=0 / deadzone=21,11 / fast_pskip=0 / chroma_qp_offset=-3 / threads=6 / lookahead_threads=1 / sliced_threads=0 / nr=0 / decimate=0 / interlaced=0 / bluray_compat=0 / constrained_intra=0 / bframes=16 / b_pyramid=2 / b_adapt=2 / b_bias=0 / direct=3 / weightb=1 / open_gop=0 / weightp=2 / keyint=250 / keyint_min=23 / scenecut=40 / intra_refresh=0 / rc=2pass / mbtree=0 / bitrate=2200 / ratetol=1.0 / qcomp=0.60 / qpmin=0 / qpmax=69 / qpstep=4 / cplxblur=20.0 / qblur=0.5 / ip_ratio=1.40 / pb_ratio=1.30 / aq=1:1.00
Язык : English
Default : Да
Forced : Нет
Цветовой диапазон : Limited
Основные цвета : BT.709
Характеристики трансфера : BT.709
Коэффициенты матрицы : BT.709

Аудио #1
Идентификатор : 2
Формат : AC-3
Формат/Информация : Audio Coding 3
Расширение режима : CM (complete main)
Параметр Endianness формата : Big
Идентификатор кодека : A_AC3
Продолжительность : 22 м.
Вид битрейта : Постоянный
Битрейт : 192 Кбит/сек
Каналы : 2 канала
Расположение каналов : Front: L R
Частота : 48,0 КГц
Метод сжатия : С потерями
Размер потока : 31,1 Мбайт (7%)
Заголовок : DUB
Язык : Russian
Default : Да
Forced : Нет

Аудио #2
Идентификатор : 3
Формат : AC-3
Формат/Информация : Audio Coding 3
Расширение режима : CM (complete main)
Параметр Endianness формата : Big
Идентификатор кодека : A_AC3
Продолжительность : 22 м.
Вид битрейта : Постоянный
Битрейт : 192 Кбит/сек
Каналы : 2 канала
Расположение каналов : Front: L R
Частота : 48,0 КГц
Метод сжатия : С потерями
Размер потока : 31,1 Мбайт (7%)
Язык : English
Default : Нет
Forced : Нет

Скриншоты


Скачать Looney_tunes.torrent

просмотры: 12

Post Comment