Детектив Зарубежные фильмы

Глаза змеи / Snake Eyes (1998) BDRip | А

Глаза змеи / Snake Eyes

Страна: США Канада
Производство: Paramount Pictures, Touchstone Pictures, DeBart
Год выпуска: 1998
Жанр: триллер, криминал, детектив
Продолжительность: 01:38:17

Режиссер: Брайан Де Пальма
Авторы сценария: Дэвид Кепп, Брайан Де Пальма

В ролях: Николас Кейдж, Гэри Синиз, Джон Хёрд, Карла Гуджино, Стэн Шоу, Кевин Данн, Майкл Рисполи, Джоэл Фабиани, Луис Гусман

Описание: Начиная с первых сенсационных выстрелов и заканчивая неожиданным финалом, фильм полон загадок и тревожного ожидания. Эксцентричный детектив полиции Атлантик-Сити Рик Санторо приходит посмотреть на своего спортивного кумира и заодно поправить свои финансовые дела на тотализаторе. Внезапная стрельба во время поединка превращает 14 тысяч болельщиков в свидетелей политического убийства. Показания свидетелей, видеозаписи электронной системы наблюдения за казино и информация, полученная от таинственной незнакомки в белом, — все это вместе рисует перед видавшим виды Санторо настолько невероятную картину убийства, что он просто отказывается в неё верить…

Перевод: Авторский (одноголосый, закадровый) | Николай «Антонов»
Субтитры: нет


Качество: BDRip
Формат: АVI
Видео кодек: XviD
Аудио кодек: АС3
Видео: 720×304 (2.35:1), 23.976 fps, XviD build 65 ~1 722 kbps avg
Аудио №1: 48.0 kHz, AC3 Dolby Digital, 2/0 (L,R) ch, ~192 kbps | RUS
Аудио №2: 48.0 kHz, AC3 Dolby Digital, 2/0 (L,R) ch, ~192 kbps | ENG

Бюджет: $73 000 000
Дата премьеры (мир): 30 июля 1998

Дополнительная информация: работа со звуком — ale_x2008, оцифровка дорожки с VHS — d_rocker

Media Info
General
Глаза змеи — Snake Eyes (by ale_x2008).avi
Format : AVI
Format/Info : Audio Video Interleave
File size : 1.46 GiB
Duration : 1 h 38 min
Overall bit rate : 2 120 kb/s
Movie name : Глаза змеи / Snake Eyes (1998) BDRip
Writing application : VirtualDubMod 1.5.10.3 (build 2550/release)
Copyright : ale_x2008 | Edich2
Comment : 12.10.2013

Video
ID : 0
Format : MPEG-4 Visual
Format profile : Advanced [email protected]
Format settings, BVOP : 1
Format settings, QPel : No
Format settings, GMC : No warppoints
Format settings, Matrix : Custom
Codec ID : XVID
Codec ID/Hint : XviD
Duration : 1 h 38 min
Bit rate : 1 722 kb/s
Width : 720 pixels
Height : 304 pixels
Display aspect ratio : 2.35:1
Frame rate : 23.976 (24000/1001) FPS
Color space : YUV
Chroma subsampling : 4:2:0
Bit depth : 8 bits
Scan type : Progressive
Compression mode : Lossy
Bits/(Pixel*Frame) : 0.328
Stream size : 1.18 GiB (81%)
Writing library : XviD 65

Audio #1
ID : 1
Format : AC-3
Format/Info : Audio Coding 3
Mode extension : CM (complete main)
Format settings, Endianness : Big
Codec ID : 2000
Duration : 1 h 38 min
Bit rate mode : Constant
Bit rate : 192 kb/s
Channel(s) : 2 channels
Channel positions : Front: L R
Sampling rate : 48.0 kHz
Frame rate : 31.250 FPS (1536 spf)
Compression mode : Lossy
Stream size : 135 MiB (9%)
Alignment : Split accross interleaves
Interleave, duration : 42 ms (1.00 video frame)
Interleave, preload duratio : 500 ms

Audio #2
ID : 2
Format : AC-3
Format/Info : Audio Coding 3
Mode extension : CM (complete main)
Format settings, Endianness : Big
Codec ID : 2000
Duration : 1 h 38 min
Bit rate mode : Constant
Bit rate : 192 kb/s
Channel(s) : 2 channels
Channel positions : Front: L R
Sampling rate : 48.0 kHz
Frame rate : 31.250 FPS (1536 spf)
Compression mode : Lossy
Stream size : 135 MiB (9%)
Alignment : Split accross interleaves
Interleave, duration : 42 ms (1.00 video frame)
Interleave, preload duratio : 500 ms

Скриншоты


Скачать Snake_eyes.torrent

просмотры: 3

Post Comment