Боевик Зарубежные фильмы

Бешеные / Enragés (2015) DVD-9 от NovaLan | P

Информация о фильме
Название: Бешеные
Оригинальное название: Enragés
Год выхода: 2015
Жанр: Боевик, триллер, драма
Режиссер: Эрик Ханнецо
В ролях: Ламбер Вильсон, Гийом Гуи, Виржини Ледуайен, Франк Гастамбид, Франсуа Арно, Лоран Люка, Александр Гойетт, Пьер Лебо, Дэйв Лапоммерей
О фильме: После ограбления банка трое отчаянных преступников берут в заложники молодую женщину и отца с ребёнком. Это станет началом жестокой поездки, которую не все из них переживут.

Страна: Франция, Канада
Студия: Black Dynamite films, Canal+
Продолжительность: 01:29:42
Перевод: Профессиональный многоголосый
Файл
Кодек: MPEG-2
Качество: DVD-9
Видео: MPEG2, NTSC 16:9 (720×[email protected]×480) VBR, 29,970 кадров/сек
Звук: Русский DD 5.1 (384 Kbps), Французский, Испанский DD 5.1 (448 Kbps)

Меню

DVDInfo

Title:
Size: 5.14 Gb ( 5 388 740 KBytes ) — DVD-9
Enabled regions: 1, 2, 3, 4, 5, 6, 7, 8

VTS_01 :
Play Length: 01:29:42
Video: NTSC 16:9 (720×480) VBR, Auto Pan&Scan
Audio:
Russian (Dolby AC3, 6 ch)
Francais (Dolby AC3, 6 ch)
Espanol (Dolby AC3, 6 ch)

Menu Video:
NTSC 4:3 (704×480) VBR
Menu English Language Unit :
Root Menu

MediaInfo

Общее
Полное имя : D:ААА2БешеныеVIDEO_TSVTS_01_1.VOB
Формат : MPEG-PS
Размер файла : 1024 Мбайт
Продолжительность : 17 м.
Режим общего битрейта : Переменный
Общий поток : 8392 Кбит/сек

Видео
Идентификатор : 224 (0xE0)
Формат : MPEG Video
Версия формата : Version 2
Профиль формата : [email protected]
Параметр BVOP формата : Да
Параметр матрицы формата : По умолчанию
Параметр GOP формата : M=3, N=13
Продолжительность : 17 м.
Вид битрейта : Переменный
Битрейт : 6945 Кбит/сек
Максимальный битрейт : 8304 Кбит/сек
Ширина : 720 пикселей
Высота : 480 пикселей
Соотношение сторон : 16:9
Частота кадров : 29,970 кадров/сек
Стандарт вещания : NTSC
Цветовое пространство : YUV
Субдискретизация насыщенности : 4:2:0
Битовая глубина : 8 бит
Тип развёртки : Прогрессивная
Метод сжатия : С потерями
Бит/(Пиксели*Кадры) : 0.671
TimeCode_FirstFrame : 00:00:00;00
TimeCode_Source : Group of pictures header
Размер потока : 847 Мбайт (83%)

Аудио #1
Идентификатор : 189 (0xBD)-128 (0x80)
Формат : AC-3
Формат/Информация : Audio Coding 3
Расширение режима : CM (complete main)
Параметр Endianness формата : Big
Режим смешивания : DVD-Video
Продолжительность : 17 м.
Вид битрейта : Постоянный
Битрейт : 384 Кбит/сек
Каналы : 6 каналов
Расположение каналов : Front: L C R, Side: L R, LFE
Частота : 48,0 КГц
Битовая глубина : 16 бит
Метод сжатия : С потерями
Размер потока : 46,8 Мбайт (5%)

Аудио #2
Идентификатор : 189 (0xBD)-129 (0x81)
Формат : AC-3
Формат/Информация : Audio Coding 3
Расширение режима : CM (complete main)
Параметр Endianness формата : Big
Режим смешивания : DVD-Video
Продолжительность : 17 м.
Вид битрейта : Постоянный
Битрейт : 448 Кбит/сек
Каналы : 6 каналов
Расположение каналов : Front: L C R, Side: L R, LFE
Частота : 48,0 КГц
Битовая глубина : 16 бит
Метод сжатия : С потерями
Размер потока : 54,7 Мбайт (5%)

Аудио #3
Идентификатор : 189 (0xBD)-130 (0x82)
Формат : AC-3
Формат/Информация : Audio Coding 3
Расширение режима : CM (complete main)
Параметр Endianness формата : Big
Режим смешивания : DVD-Video
Продолжительность : 17 м.
Вид битрейта : Постоянный
Битрейт : 448 Кбит/сек
Каналы : 6 каналов
Расположение каналов : Front: L C R, Side: L R, LFE
Частота : 48,0 КГц
Битовая глубина : 16 бит
Метод сжатия : С потерями
Размер потока : 54,7 Мбайт (5%)

Меню

Скриншоты

Релиз:


Скачать Beshenye.torrent

просмотры: 0

Post Comment