Драма Зарубежные фильмы

Абай / Abai (1995) DVB от AND03AND | P1

Информация о фильме
Название: Абай
Оригинальное название: Abai
Год выхода: 1995
Жанр: Эпическая драма
Режиссер: Ардак Амиркулов
В ролях: Габиден Турыкбаев, Тунгышбай Жаманкулов, Болот Бейшеналиев, Фарида Жантелова, Димаш Ахимов, Умирзак Шманов, Дохдурбек Кыдыралиев, Бикен Римова, Гульнара (Гюльнар) Рахимбаева, Райхан Айткожанова, Булат Мажагулов, Ергали Оразымбетов, Мухтар Бахтыгереев

О фильме:
Эпическая драма. По мотивам одноименного романа Мухтара Ауэзова.

О жизни, любви и творчестве казахского поэта Абая (1845-1904), просветителя, мыслителя и политического деятеля 19 века. Фильм представляет собой объемное повествование о жизни в казахской степи, быте, родовых и человеческих отношениях в среде, где проходит юность поэта. Приурочен к 150-летию со дня рождения Абая.

Доп. информация:
Сценаристы: Серик Апрымов, Лейла Ахинжанова, Александр Баранов
Операторы: Хасанбек Кыдыралиев, Абубакир Сулеев
Композитор: Куат Шильдебаев
Художники: Бекболат Тлеуханов, Умирзак Шманов
Продюсеры: Ардак Амиркулов, Ермек Шинарбаев
Производство: АСС, Казахфильм
Премьера: 7 августа 1995

Афиша

Запись потока *.ts с наземного цифрового телеканала "Беларусь 3".

Благодарность: за помощь с недостающим материалом Bartimeyse и PavelDAS. Обоим большое спасибо!

Страна: Франция, Казахстан
Студия: АСС, Казахфильм
Продолжительность: 02:08:42
Перевод: Профессиональный одноголосый закадровый — P1

Файл
Кодек: AVC (H264)
Качество: DVB
Видео: MPEG4 Video (H264) 720(785)x576 (4:3) 25fps, 2 266 Kbps
Звук: MPEG Audio 48000Hz stereo 256kbps

Семпл

MediaInfo

General
ID : 1 (0x1)
Complete name : D:Новая земля 2Художественные фильмыАбай (1995)Абай (1995).ts
Format : MPEG-TS
File size : 2.39 GiB
Duration : 2h 8mn
Overall bit rate mode : Variable
Overall bit rate : 2 656 Kbps

Video
ID : 513 (0x201)
Menu ID : 1 (0x1)
Format : AVC
Format/Info : Advanced Video Codec
Format profile : [email protected]
Format settings, CABAC : Yes
Format settings, ReFrames : 4 frames
Codec ID : 27
Duration : 2h 8mn
Bit rate : 2 266 Kbps
Width : 720 pixels
Height : 576 pixels
Display aspect ratio : 4:3
Frame rate : 25.000 fps
Standard : PAL
Color space : YUV
Chroma subsampling : 4:2:0
Bit depth : 8 bits
Scan type : MBAFF
Scan order : Top Field First
Bits/(Pixel*Frame) : 0.219
Stream size : 2.04 GiB (85%)
Color primaries : BT.601 PAL
Transfer characteristics : BT.470 System B, BT.470 System G
Matrix coefficients : BT.601
Color range : Limited

Audio
ID : 514 (0x202)
Menu ID : 1 (0x1)
Format : MPEG Audio
Format version : Version 1
Format profile : Layer 2
Codec ID : 3
Duration : 2h 8mn
Bit rate mode : Constant
Bit rate : 256 Kbps
Channel(s) : 2 channels
Sampling rate : 48.0 KHz
Compression mode : Lossy
Stream size : 236 MiB (10%)
Language : English

Скриншот c названием фильма

Скриншоты


Скачать Abaj_1995.ts.torrent

просмотры: 4

Post Comment