Мультипликация

Дуда и Дада / Duda & Dada [01×01-23 из ?] (2014) WEB-DLRip 1080p от ExKinoRay | D

Информация о фильме
Название: Дуда и Дада
Оригинальное название: Duda & Dada
Год выхода: 2014
Страна: Корея Южная
Жанр: Мультсериал, детский, семейный
Продолжительность: 23 х ~ 00:10:45
Перевод: Профессиональный дублированный

Режиссеры: Джион Ли, На Ян Квак, Бюнгсун Цой

О фильме: Дуда — маленький кротик. Дада — любопытная девочка. Вместе они познают мир вокруг себя и открывают тайны Неведанного Леса. Дада много путешествует на своем универсальном микроавтобусе по всему свету. Дуда мечтает стать первым в мире кротом-исследователем и путешественником.

Содержание

1. Привет, Пинкар!
02. Мнимый больной
03. Звездочка, подожди меня!
04. Это секрет!
05. Не могу уснуть
06. Ангельская улыбка!
07. Катание на санках
08. Странный след
09. Почтальон на день
10. За рулем Пинкара
11. Великан Дуда
12. Сложно быть мамой
13. Слишком шумно!
14. Репетиция
15. Новый приятель
16. Загадай желание
17. Икота
18. Хочу стать моделью
19. Герой Неизведанного леса
20. Фея уборки
21. Детектив Дуда
22. Помощники Санты
23. Дуда-фотограф!


Доп. информация:
премьера (РФ): 23 мая 2016

Семпл


Файл
Формат: MP4
Качество: WEB-DLRip 1080p
Видео: MPEG4-AVC, [email protected], 1920×1080 (16:9), ~ 3 204 Kbps, 25.000 fps
Звук: 44.1 KHz, AAC-LC 2.0, 126 Kbps
Субтитры: нет

MI

21. Детектив Дуда. Full-HD-merci-.mp4
Формат : MPEG-4
Профиль формата : Base Media
Идентификатор кодека : isom (isom/mp42)
Размер файла : 256 Мбайт
Продолжительность : 10 м.
Режим общего битрейта : Переменный
Общий поток : 3335 Кбит/сек
Дата кодирования : UTC 2016-08-13 01:15:08
Дата пометки : UTC 2016-08-13 01:15:08
Программа кодирования : My MP4Box GUI 0.6.0.6

Видео
Идентификатор : 1
Формат : AVC
Формат/Информация : Advanced Video Codec
Профиль формата : [email protected]
Параметр CABAC формата : Да
Параметр ReFrames формата : 2 кадра
Идентификатор кодека : avc1
Идентификатор кодека/Информация : Advanced Video Coding
Продолжительность : 10 м.
Продолжительность оригинала : 10 м.
Битрейт : 3204 Кбит/сек
Ширина : 1920 пикселей
Высота : 1080 пикселей
Соотношение сторон : 16:9
Режим частоты кадров : Постоянный
Частота кадров : 25,000 кадров/сек
Цветовое пространство : YUV
Субдискретизация насыщенности : 4:2:0
Битовая глубина : 8 бит
Тип развёртки : Прогрессивная
Бит/(Пиксели*Кадры) : 0.062
Размер потока : 246 Мбайт (96%)
Размер потока оригинала : 246 Мбайт (96%)
Язык : English
Дата кодирования : UTC 2016-08-13 01:15:08
Дата пометки : UTC 2016-08-13 01:15:08
Цветовой диапазон : Limited
Основные цвета : BT.709
Характеристики трансфера : BT.709
Коэффициенты матрицы : BT.709
mdhd_Duration : 643975

Аудио
Идентификатор : 2
Формат : AAC
Формат/Информация : Advanced Audio Codec
Профиль формата : LC
Идентификатор кодека : 40
Продолжительность : 10 м.
Вид битрейта : Переменный
Битрейт : 126 Кбит/сек
Каналы : 2 канала
Расположение каналов : Front: L R
Частота : 44,1 КГц
Частота кадров : 43,066 кадра/сек (1024 spf)
Метод сжатия : С потерями
Размер потока : 9,64 Мбайт (4%)
Язык : English
Дата кодирования : UTC 2016-08-13 01:15:08
Дата пометки : UTC 2016-08-13 01:15:08
mdhd_Duration : 643983

Скриншоты

Релиз от:
Автор релиза: /


Скачать Duda_i_Dada._W-1080p-merci-.torrent

просмотры: 3

Post Comment