Военный Зарубежные фильмы

Заговор / Conspiracy (2001) HDTV 1080i от MediaClub | P

Информация о фильме
Название: Заговор
Оригинальное название: Conspiracy
Год выхода: 2001
Жанр: Военный, драма, исторический
Режиссер: Фрэнк Пирсон
В ролях: Кеннет Брана, Стэнли Туччи, Колин Фёрт, Барнаби Кэй, Бен Дэниэлс, Дэвид Трелфолл, Джонатан Кой, Брендан Койл, Йан МакНис, Оуэн Тил, Николас Вудесон, Кевин МакНэлли, Питер Салливан, Юэн Стюарт, Брайан Петтифер, Клэйр Баллас, Дэвид Гловер, Андреас Гюнтер, Том Хиддлстон, Саймон Марки, Дирк Мартенс, Росс О'Хеннесси, Флориан Пэнзнер, Хиннерк Шёнеманн, Дэвид Спинкс, Дэвид Уиллоуби, Пол Бэннон, Ник Браун

О фильме:
Нацистская Германия, зима 1942 года. Гитлер начинает сомневаться в быстрой и легкой победе. Мечта фюрера о мировом господстве превращается в кошмар. Германия может проиграть войну. Немецкая армия мерзнет, голодает и терпит поражение на восточном фронте, советские солдаты одерживают победу за победой. Мощные американские военные силы вступают в войну на западе. 20 января 1942 года 15 высокопоставленных членов рейха собираются вместе, чтобы отдохнуть и принять участие в конференции в пригороде Берлина. Эта встреча, куда съехались командиры подразделений "СС" и министры из правительства, была организована по приказу Адольфа Гитлера группенфюрером секретной службы Рейнхардом Гейдрихом. Именно здесь, в роскошном особняке, во время шикарного обеда они должны окончательно решить "еврейский вопрос". Фильм основан на единственной стенограмме конференции.

Страна: Великобритания, США
Студия: BBC Television Centre, HBO Films, Home Box Office (HBO)
Продолжительность: 01:31:49
Перевод: Профессиональный многоголосый

Файл
Кодек: h.264
Качество: HDTV 1080i
Видео: MPEG-4 AVC, ~ 6648 Кбит/с, 1920×1080, 25.000 кадр/с
Звук:
Русский (AC3, 6 ch, 384 Кбит/с) / Профессиональный многоголосый (Amedia)
Английский (MP2, 2 ch, 192 Кбит/с)

Семпл

О релизе
Автор релиза — Silverok, первоисточник — Amedia Premium HD

MI
Общее
Идентификатор : 1 (0x1)
Полное имя : D:uTorrentZagovor.2001.HDTV.1080i.MediaClub.ts
Формат : MPEG-TS
Размер файла : 4,88 Гбайт
Продолжительность : 1 ч. 31 м.
Режим общего битрейта : Переменный
Общий поток : 7606 Кбит/сек

Видео
Идентификатор : 303 (0x12F)
Идентификатор меню : 26003 (0x6593)
Формат : AVC
Формат/Информация : Advanced Video Codec
Профиль формата : [email protected]
Параметр CABAC формата : Да
Параметр ReFrames формата : 4 кадра
Параметр GOP формата : M=4, N=28
Идентификатор кодека : 27
Продолжительность : 1 ч. 31 м.
Битрейт : 6648 Кбит/сек
Ширина : 1920 пикселей
Высота : 1080 пикселей
Соотношение сторон : 16:9
Частота кадров : 25,000 кадров/сек
Стандарт вещания : Component
Цветовое пространство : YUV
Субдискретизация насыщенности : 4:2:0
Битовая глубина : 8 бит
Тип развёртки : Чересстрочная
Метод сохранения типа развёртки : Раздельные поля
Порядок развёртки : Верхнее поле первое
Бит/(Пиксели*Кадры) : 0.128
Размер потока : 4,26 Гбайт (87%)
Цветовой диапазон : Limited
Основные цвета : BT.709
Характеристики трансфера : BT.709
Коэффициенты матрицы : BT.709

Аудио #1
Идентификатор : 403 (0x193)
Идентификатор меню : 26003 (0x6593)
Формат : AC-3
Формат/Информация : Audio Coding 3
Расширение режима : CM (complete main)
Параметр Endianness формата : Big
Идентификатор кодека : 6
Продолжительность : 1 ч. 31 м.
Вид битрейта : Постоянный
Битрейт : 384 Кбит/сек
Каналы : 6 каналов
Расположение каналов : Front: L C R, Side: L R, LFE
Частота : 48,0 КГц
Частота кадров : 31,250 кадров/сек (1536 spf)
Метод сжатия : С потерями
Размер потока : 252 Мбайт (5%)
Язык : Russian

Аудио #2
Идентификатор : 404 (0x194)
Идентификатор меню : 26003 (0x6593)
Формат : MPEG Audio
Версия формата : Version 1
Профиль формата : Layer 2
Идентификатор кодека : 3
Продолжительность : 1 ч. 31 м.
Вид битрейта : Постоянный
Битрейт : 192 Кбит/сек
Каналы : 2 канала
Частота : 48,0 КГц
Метод сжатия : С потерями
Размер потока : 126 Мбайт (3%)
Язык : English

Текст
Идентификатор : 405 (0x195)-888
Идентификатор меню : 26003 (0x6593)
Формат : Teletext Subtitle
Язык : Russian

Скриншоты

Релиз от: | Silverok


Скачать Zagovor.2001.HDTV.1080i.MediaClub.ts.torrent

просмотры: 5

Post Comment