Драма Зарубежные фильмы

Книга джунглей / The Jungle Book (2016) BDRip-AVC от ExKinoRay | iTunes Russia

Информация о фильме
Название: Книга джунглей
Оригинальное название: The Jungle Book
Год выпуска: 2016
Жанр: фэнтези, драма, приключения, семейный
Режиссер: Джон Фавро
В ролях: Нил Сетхи, Билл Мюррей, Бен Кингсли, Идрис Эльба, Лупита Нионго, Скарлетт Йоханссон, Джанкарло Эспозито, Кристофер Уокен

О фильме:
Непримиримая борьба с опасным и внушающим страх тигром Шерханом вынуждает Маугли покинуть волчью стаю и отправиться в захватывающее путешествие. На пути мальчика ждут удивительные открытия и запоминающиеся встречи с пантерой Багирой, медведем Балу, питоном Каа и другими обитателями дремучих джунглей…

Страна: США
Студия: Walt Disney Pictures
Продолжительность: 01:45:54
Перевод: Профессиональный (полное дублирование) | iTunes Russia

Файл
Кодек: x264
Качество: BDRip-AVC
Видео: MPEG-4 AVC, 1523 Кбит/с, 720×388
Аудио: Русский (AC3, 6 ch, 384 Кбит/с)
Субтитры: Английские

Инфо файл
Общее
Уникальный идентификатор : 244185525245756527783823717927624784968 (0xB7B46BE7CBB7B035AEC42FD2496E3C48)
Полное имя : D:ВидеоThe.Jungle.Book.2016.BDRip(AVC) by Vovan366(ExKinoRay).mkv
Формат : Matroska
Версия формата : Version 4 / Version 2
Размер файла : 1,41 Гбайт
Продолжительность : 1 ч. 45 м.
Общий поток : 1909 Кбит/сек
Название фильма : The.Jungle.Book.2016.BDRip(AVC) by Vovan366(ExKinoRay)
Дата кодирования : UTC 2016-08-11 14:58:16
Программа кодирования : mkvmerge v9.3.1 ('Mask Machine') 64bit
Библиотека кодирования : libebml v1.3.4 + libmatroska v1.4.5
DURATION : 01:44:42.524000000
NUMBER_OF_FRAMES : 1410
NUMBER_OF_BYTES : 39302
_STATISTICS_WRITING_APP : mkvmerge v9.3.1 ('Mask Machine') 64bit
_STATISTICS_WRITING_DATE_UTC : 2016-08-11 14:58:16
_STATISTICS_TAGS : BPS DURATION NUMBER_OF_FRAMES NUMBER_OF_BYTES

Видео
Идентификатор : 1
Формат : AVC
Формат/Информация : Advanced Video Codec
Профиль формата : [email protected]
Параметр CABAC формата : Да
Параметр ReFrames формата : 10 кадров
Идентификатор кодека : V_MPEG4/ISO/AVC
Продолжительность : 1 ч. 45 м.
Битрейт : 1523 Кбит/сек
Ширина : 720 пикселей
Высота : 388 пикселей
Соотношение сторон : 1,85:1
Режим частоты кадров : Постоянный
Частота кадров : 23,976 кадра/сек
Цветовое пространство : YUV
Субдискретизация насыщенности : 4:2:0
Битовая глубина : 8 бит
Тип развёртки : Прогрессивная
Бит/(Пиксели*Кадры) : 0.227
Размер потока : 1,10 Гбайт (78%)
Заголовок : by Vovan366(ExKinoRay)
Библиотека кодирования : x264 core 146 r2538 121396c
Настройки программы : cabac=1 / ref=10 / deblock=1:-3:-3 / analyse=0x3:0x113 / me=umh / subme=11 / psy=1 / psy_rd=1.00:0.05 / mixed_ref=1 / me_range=48 / chroma_me=1 / trellis=2 / 8x8dct=1 / cqm=0 / deadzone=21,11 / fast_pskip=0 / chroma_qp_offset=-3 / threads=6 / lookahead_threads=1 / sliced_threads=0 / nr=0 / decimate=0 / interlaced=0 / bluray_compat=0 / constrained_intra=0 / bframes=10 / b_pyramid=2 / b_adapt=2 / b_bias=0 / direct=3 / weightb=1 / open_gop=0 / weightp=2 / keyint=240 / keyint_min=23 / scenecut=40 / intra_refresh=0 / rc_lookahead=40 / rc=2pass / mbtree=0 / bitrate=1523 / ratetol=1.0 / qcomp=0.60 / qpmin=0 / qpmax=69 / qpstep=4 / cplxblur=20.0 / qblur=0.5 / vbv_maxrate=14000 / vbv_bufsize=14000 / nal_hrd=none / filler=0 / ip_ratio=1.40 / pb_ratio=1.30 / aq=1:1.00
Default : Да
Forced : Нет
Основные цвета : BT.709
Характеристики трансфера : BT.709
Коэффициенты матрицы : BT.709

Аудио
Идентификатор : 2
Формат : AC-3
Формат/Информация : Audio Coding 3
Расширение режима : CM (complete main)
Параметр Endianness формата : Big
Идентификатор кодека : A_AC3
Продолжительность : 1 ч. 45 м.
Вид битрейта : Постоянный
Битрейт : 384 Кбит/сек
Каналы : 6 каналов
Расположение каналов : Front: L C R, Side: L R, LFE
Частота : 48,0 КГц
Битовая глубина : 16 бит
Метод сжатия : С потерями
Задержка видео : 800 мс.
Размер потока : 291 Мбайт (20%)
Заголовок : iTunes
Язык : Russian
Default : Да
Forced : Нет

Текст #1
Идентификатор : 3
Формат : UTF-8
Идентификатор кодека : S_TEXT/UTF8
Идентификатор кодека/Информация : UTF-8 Plain Text
Заголовок : Full
Язык : English
Default : Нет
Forced : Нет

Текст #2
Идентификатор : 4
Формат : UTF-8
Идентификатор кодека : S_TEXT/UTF8
Идентификатор кодека/Информация : UTF-8 Plain Text
Заголовок : SDH
Язык : English
Default : Нет
Forced : Нет

Меню
00:00:00.000 : en:Chapter 01
00:00:48.215 : en:Chapter 02
00:05:15.315 : en:Chapter 03
00:09:02.459 : en:Chapter 04
00:12:42.178 : en:Chapter 05
00:16:34.452 : en:Chapter 06
00:21:20.029 : en:Chapter 07
00:27:15.133 : en:Chapter 08
00:35:04.144 : en:Chapter 09
00:43:21.724 : en:Chapter 10
00:48:05.132 : en:Chapter 11
00:53:29.248 : en:Chapter 12
00:58:03.271 : en:Chapter 13
01:05:46.442 : en:Chapter 14
01:10:35.523 : en:Chapter 15
01:17:01.325 : en:Chapter 16
01:20:48.927 : en:Chapter 17
01:24:46.540 : en:Chapter 18
01:30:32.969 : en:Chapter 19
01:35:53.206 : en:Chapter 20

Скриншоты


Релиз от:
Rip by: Vovan366


Скачать The.Jungle.Book.2016.BDRipAVC_by_Vovan366ExKino.torrent

просмотры: 4

Post Comment