Драма Зарубежные фильмы

Книга джунглей / The Jungle Book (2016) BDRip 720p от ExKinoRay | iTunes

Информация о фильме
Название: Книга джунглей
Оригинальное название: The Jungle Book
Год выхода: 2016
Жанр: Фэнтези, драма, приключения
Режиссер: Джон Фавро
В ролях: Нил Сети, Билл Мюррэй, Бен Кингсли, Идрис Эльба, Лупита Нионго, Скарлетт Йоханссон, Джанкарло Эспозито, Кристофер Уокен, Гарри Шендлинг, Брайтон Роуз, Эмджей Энтони, Макс Фавро, Хлоя Хехтер, Эшер Блинкофф, Нокс Ганьон, Саша Шрайбер, Кай Шрайбер, Джон Фавро, Сэм Рэйми, Расселл Питерс

О фильме:
Эта удивительная история повествует о маленьком мальчике, которого вырастили в глухом лесу говорящие животные. Он воспитывался в волчьей стае и постигал законы джунглей под присмотром мудрой пантеры Багиры. Однако, всевозрастающая угроза со стороны тигра Шерхана вынуждает его покинуть родной дом и отправиться в ближайшую деревню к людям. Ему предстоит пройти длинный путь к познанию своего прошлого, преисполненный опасными приключениями и захватывающими встречами с медведем Балу, питоном Каа, обезьяним королем Луи и другими лесными жителями.

Страна: США
Студия: Walt Disney Pictures
Продолжительность: 01:45:54
Перевод: Дублированный | iTunes

Файл
Кодек: MPEG-4
Качество: BDRip 720p
Видео: 1280×690, 8453 Кbit/s, 23.976 fps
Звук:
Аудио #01: 48 kHz, AC3, 5.1, 384 Kbps | Дублированный | iTunes |
Аудио #02: 48 kHz, DTS, 5.1, 1510 kbps | Оригинал |
Субтитры: Английские

MI
General
Unique ID : 217879690570784803262405452592162750802 (0xA3EA1A1EED55E6CCB2F35122C1574152)
Complete name : G:VideoThe.Jungle.Book.2016.D.BDRip.720p.ExKinoRay.mkv
Format : Matroska
Format version : Version 4 / Version 2
File size : 7.65 GiB
Duration : 1h 45mn
Overall bit rate : 10.3 Mbps
Movie name : The.Jungle.Book.2016.D.BDRip.720p.ExKinoRay
Encoded date : UTC 2016-08-10 20:52:16
Writing application : mkvmerge v8.3.0 ('Over the Horizon') 64bit
Writing library : libebml v1.3.1 + libmatroska v1.4.2

Video
ID : 1
Format : AVC
Format/Info : Advanced Video Codec
Format profile : [email protected]
Format settings, CABAC : Yes
Format settings, ReFrames : 9 frames
Codec ID : V_MPEG4/ISO/AVC
Duration : 1h 45mn
Bit rate : 8 453 Kbps
Width : 1 280 pixels
Height : 690 pixels
Display aspect ratio : 1.85:1
Frame rate mode : Constant
Frame rate : 23.976 (24000/1001) fps
Color space : YUV
Chroma subsampling : 4:2:0
Bit depth : 8 bits
Scan type : Progressive
Bits/(Pixel*Frame) : 0.399
Stream size : 6.25 GiB (82%)
Writing library : x264 core 146 r2538 121396c
Encoding settings : cabac=1 / ref=9 / deblock=1:-3:-3 / analyse=0x3:0x133 / me=umh / subme=10 / psy=1 / psy_rd=1.10:0.00 / mixed_ref=1 / me_range=32 / chroma_me=1 / trellis=2 / 8x8dct=1 / cqm=0 / deadzone=21,11 / fast_pskip=0 / chroma_qp_offset=-2 / threads=6 / lookahead_threads=2 / sliced_threads=0 / nr=0 / decimate=0 / interlaced=0 / bluray_compat=0 / constrained_intra=0 / bframes=8 / b_pyramid=2 / b_adapt=2 / b_bias=0 / direct=3 / weightb=1 / open_gop=0 / weightp=2 / keyint=240 / keyint_min=23 / scenecut=40 / intra_refresh=0 / rc_lookahead=150 / rc=2pass / mbtree=1 / bitrate=8453 / ratetol=1.0 / qcomp=0.70 / qpmin=0 / qpmax=69 / qpstep=4 / cplxblur=20.0 / qblur=0.5 / vbv_maxrate=50000 / vbv_bufsize=62500 / nal_hrd=none / filler=0 / ip_ratio=1.40 / aq=3:0.80
Language : English
Default : Yes
Forced : No

Audio #1
ID : 2
Format : AC-3
Format/Info : Audio Coding 3
Mode extension : CM (complete main)
Format settings, Endianness : Big
Codec ID : A_AC3
Duration : 1h 45mn
Bit rate mode : Constant
Bit rate : 384 Kbps
Channel(s) : 6 channels
Channel positions : Front: L C R, Side: L R, LFE
Sampling rate : 48.0 KHz
Frame rate : 31.250 fps (1536 spf)
Compression mode : Lossy
Delay relative to video : 800ms
Stream size : 291 MiB (4%)
Title : DUB [iTunes]
Language : Russian
Default : Yes
Forced : No

Audio #2
ID : 3
Format : DTS
Format/Info : Digital Theater Systems
Mode : 16
Format settings, Endianness : Big
Codec ID : A_DTS
Duration : 1h 45mn
Bit rate mode : Constant
Bit rate : 1 509 Kbps
Channel(s) : 6 channels
Channel positions : Front: L C R, Side: L R, LFE
Sampling rate : 48.0 KHz
Frame rate : 93.750 fps (512 spf)
Bit depth : 24 bits
Compression mode : Lossy
Stream size : 1.12 GiB (15%)
Title : Original
Language : English
Default : No
Forced : No

Text #1
ID : 4
Format : UTF-8
Codec ID : S_TEXT/UTF8
Codec ID/Info : UTF-8 Plain Text
Duration : 1h 44mn
Bit rate : 44 bps
Count of elements : 1218
Stream size : 34.1 KiB (0%)
Title : Full
Language : English
Default : No
Forced : No

Text #2
ID : 5
Format : UTF-8
Codec ID : S_TEXT/UTF8
Codec ID/Info : UTF-8 Plain Text
Duration : 1h 44mn
Bit rate : 50 bps
Count of elements : 1410
Stream size : 38.4 KiB (0%)
Title : SDH
Language : English
Default : No
Forced : No

Menu
00:00:00.000 : en:Chapter 01
00:00:48.215 : en:Chapter 02
00:05:15.315 : en:Chapter 03
00:09:02.459 : en:Chapter 04
00:12:42.178 : en:Chapter 05
00:16:34.452 : en:Chapter 06
00:21:20.029 : en:Chapter 07
00:27:15.133 : en:Chapter 08
00:35:04.144 : en:Chapter 09
00:43:21.724 : en:Chapter 10
00:48:05.132 : en:Chapter 11
00:53:29.248 : en:Chapter 12
00:58:03.271 : en:Chapter 13
01:05:46.442 : en:Chapter 14
01:10:35.523 : en:Chapter 15
01:17:01.325 : en:Chapter 16
01:20:48.927 : en:Chapter 17
01:24:46.540 : en:Chapter 18
01:30:32.969 : en:Chapter 19
01:35:53.206 : en:Chapter 20
Скриншоты

Релиз от: Автор релиза:


Скачать The.Jungle.Book.2016.D.BDRip.720p.ExKinoRay.mkv.torrent

просмотры: 0

Post Comment