Военный Зарубежные фильмы

Герника / Gernika (2016) WEB-DLRip от Portablius | Line

Информация о фильме
Название: Герника
Оригинальное название: Gernika
Год выхода: 2016
Жанр: мелодрама, военный
Режиссер: Кольдо Серра
В ролях: Берн Горман, Джеймс Д’Арси, Джек Девенпорт, Мария Вальверде, Уго Сильва, Ирена Эсколар, Ингрид Гарсия Йонсон, Йоахим Пауль Ассбёк

О фильме: Романтическая драма о разочарованном и циничном американском журналисте, который оказывается единственным «вестником правды» из испанского города Герника, где зверствует гражданская война. В его работу и дальнейшую судьбу вмешивается местная республиканка Тереза, ответственная за цензуру исходящих новостей…

Страна: Испания
Студия: Anima Pictures, Pecado Films, Pterodactyl Productions, Travis Producciones
Продолжительность: 01:50:25
Перевод: Профессиональный, многоголосый (Официальный звук)
Субтитры: Нет

ПРИМЕЧАНИЕ: ПРИСУТСТВУЕТ РЕКЛАМА!

Семпл

Файл
Кодек: XviD
Качество: WEB-DLRip
Видео: 688×288 (2.39:1), 23.976 fps, XviD build 73 ~798 kbps avg, 0.17 bit/pixel
Звук: 48 kHz, MPEG Layer 3, 2 ch, ~128.00 kbps avg

MediaInfo
Общее
Полное имя : Gernika.2016.WEB-DLRip.Portablius.avi
Формат : AVI
Формат/Информация : Audio Video Interleave
Размер файла : 746 Мбайт
Продолжительность : 1 ч. 51 м.
Общий поток : 936 Кбит/сек
Программа кодирования : VirtualDubMod 1.5.10.3 | www.virtualdub-fr.org || (build 2550/release)
Библиотека кодирования : VirtualDubMod build 2550/release

Видео
Идентификатор : 0
Формат : MPEG-4 Visual
Профиль формата : Advanced [email protected]
Параметр BVOP формата : 1
Параметр QPel формата : Нет
Параметр GMC формата : Без точки перехода
Параметр матрицы формата : Выборочная
Идентификатор кодека : XVID
Идентификатор кодека/Подсказка : XviD
Продолжительность : 1 ч. 51 м.
Битрейт : 799 Кбит/сек
Ширина : 688 пикселей
Высота : 288 пикселей
Соотношение сторон : 2,40:1
Частота кадров : 23,976 (23976/1000) кадра/сек
Цветовое пространство : YUV
Субдискретизация насыщенности : 4:2:0
Битовая глубина : 8 бит
Тип развёртки : Прогрессивная
Метод сжатия : С потерями
Бит/(Пиксели*Кадры) : 0.168
Размер потока : 637 Мбайт (85%)
Библиотека кодирования : XviD 73

Аудио
Идентификатор : 1
Формат : MPEG Audio
Версия формата : Version 1
Профиль формата : Layer 3
Идентификатор кодека : 55
Идентификатор кодека/Подсказка : MP3
Продолжительность : 1 ч. 51 м.
Вид битрейта : Постоянный
Битрейт : 128 Кбит/сек
Каналы : 2 канала
Частота : 48,0 КГц
Метод сжатия : С потерями
Размер потока : 102 Мбайт (14%)
Выравнивание : Соединение по промежуткам
Продолжительность промежутка : 42 мс. (1,00 видеокадр)
Время предзагрузки промежутка : 504 мс.
Библиотека кодирования : LAME3.99r
Настройки программы : -m s -V 4 -q 2 -lowpass 17 -b 128

Скриншоты


Скачать Gernika.2016.WEB-DLRip.Portablius.avi.torrent

просмотры: 3

Post Comment