Детский Зарубежные фильмы

Дети кукурузы 2: Последняя жертва / Children of the Corn II: The Final Sacrifice (1992) BDRip 1080p | P, A

Название: Дети кукурузы 2: Последняя жертва
Оригинальное название: Children of the Corn II: The Final Sacrifice
Год выхода: 1992
Страна: США
Студия: Corn Cobb Productions, Dimension Films, Fifth Avenue Entertainment
Продолжительность: 01:32:59
Жанр: ужасы, триллер, …

Режиссер: Дэвид Прайс
В ролях: Теренс Нокс, Пол Шеррер, Райан Боллман, Кристи Кларк, Розалинд Аллен, Нед Ромеро, Эд Грейди, Джон Беннс, Уоллас Мерк, Джо Инскоу, …

Перевод:
— Профессиональный (многоголосный, закадровый) ?
— Авторский (одноголосый, закадровый) Гаврилов Андрей Юрьевич
— Субтитры

О фильме: После того, как кошмар в Гатлине стал достоянием общественности, оставшиеся в живых дети были вывезены из города и распределены по детским домам и приютам. На горяченькое приехал и журналист Джон Гаррет вместе со своим сыном Дэниэлом.
Однако городок для своего пребывания они выбрали не очень удачно — в нем заново начал поднимать голову кукурузный культ Того, Кто Ходит Между Стеблями. На этот раз основателем культа и новым пророком стал паренек Майца…

Кодек: x264
Качество: BDRip 1080p
Видео: 1920×1080, 12000 kbps, 23,976 fps
Аудио #1: AC-3, 2 ch, 192 kbps (Rus) — MVO
Аудио #2: AC-3, 2 ch, 192 kbps (Rus) — AVO Гаврилов Андрей Юрьевич
Аудио #3: AC-3, 2 ch, 384 kbps (Eng)
Субтитры: Русские, Английские

Дополнительная информация
За исходник спасибо — Diablo

MediaInfo

x264 [info]: frame I:720 Avg QP:17.37 size:176970
x264 [info]: frame P:26107 Avg QP:19.90 size:104676
x264 [info]: frame B:106950 Avg QP:22.11 size: 51468
x264 [info]: consecutive B-frames: 1.2% 1.6% 5.0% 11.3% 12.0% 58.1% 7.7% 1.4% 0.7% 0.4% 0.2% 0.2% 0.2%

Общее
Уникальный идентификатор : 228333814734699055835406090651507594241 (0xABC77E3C8C01E6BB880DCB5AE0439401)
Полное имя : Дети кукурузы 2 Последняя жертва (Children of the corn II The final sacrifice) 1992 BDRip 1080p.mkv
Формат : Matroska
Версия формата : Version 2
Размер файла : 8,29 Гбайт
Продолжительность : 1 ч. 32 м.
Общий поток : 12,8 Мбит/сек
Дата кодирования : UTC 2016-06-15 13:00:20
Программа кодирования : mkvmerge v4.0.0 ('The Stars were mine') сборка от Jun 6 2010 16:18:42
Библиотека кодирования : libebml v1.0.0 + libmatroska v1.0.0

Видео
Идентификатор : 1
Формат : AVC
Формат/Информация : Advanced Video Codec
Профиль формата : [email protected]
Параметр CABAC формата : Да
Параметр ReFrames формата : 4 кадра
Идентификатор кодека : V_MPEG4/ISO/AVC
Продолжительность : 1 ч. 32 м.
Битрейт : 12,0 Мбит/сек
Ширина : 1920 пикселей
Высота : 1080 пикселей
Соотношение сторон : 16:9
Режим частоты кадров : Постоянный
Частота кадров : 23,976 (24000/1001) кадра/сек
Цветовое пространство : YUV
Субдискретизация насыщенности : 4:2:0
Битовая глубина : 8 бит
Тип развёртки : Прогрессивная
Бит/(Пиксели*Кадры) : 0.241
Размер потока : 7,63 Гбайт (92%)
Библиотека кодирования : x264 core 146 r2538 121396c
Настройки программы : cabac=1 / ref=4 / deblock=1:-3:-3 / analyse=0x3:0x133 / me=umh / subme=11 / psy=1 / psy_rd=1.00:0.00 / mixed_ref=1 / me_range=32 / chroma_me=1 / trellis=2 / 8x8dct=1 / cqm=0 / deadzone=21,11 / fast_pskip=0 / chroma_qp_offset=-2 / threads=12 / lookahead_threads=2 / sliced_threads=0 / nr=0 / decimate=0 / interlaced=0 / bluray_compat=0 / constrained_intra=0 / bframes=12 / b_pyramid=2 / b_adapt=2 / b_bias=0 / direct=3 / weightb=1 / open_gop=0 / weightp=2 / keyint=240 / keyint_min=23 / scenecut=40 / intra_refresh=0 / rc=2pass / mbtree=0 / bitrate=12000 / ratetol=1.0 / qcomp=0.60 / qpmin=0 / qpmax=69 / qpstep=4 / cplxblur=20.0 / qblur=0.5 / ip_ratio=1.40 / pb_ratio=1.30 / aq=1:0.80
Язык : English
Default : Нет
Forced : Нет

Аудио #1
Идентификатор : 2
Формат : AC-3
Формат/Информация : Audio Coding 3
Расширение режима : CM (complete main)
Параметр Endianness формата : Big
Идентификатор кодека : A_AC3
Продолжительность : 1 ч. 32 м.
Вид битрейта : Постоянный
Битрейт : 192 Кбит/сек
Каналы : 2 канала
Расположение каналов : Front: L R
Частота : 48,0 КГц
Частота кадров : 31,250 кадров/сек (1536 spf)
Метод сжатия : С потерями
Размер потока : 128 Мбайт (2%)
Заголовок : MVO
Язык : Russian
Default : Нет
Forced : Нет

Аудио #2
Идентификатор : 3
Формат : AC-3
Формат/Информация : Audio Coding 3
Расширение режима : CM (complete main)
Параметр Endianness формата : Big
Идентификатор кодека : A_AC3
Продолжительность : 1 ч. 32 м.
Вид битрейта : Постоянный
Битрейт : 192 Кбит/сек
Каналы : 2 канала
Расположение каналов : Front: L R
Частота : 48,0 КГц
Частота кадров : 31,250 кадров/сек (1536 spf)
Метод сжатия : С потерями
Размер потока : 128 Мбайт (2%)
Заголовок : AVO Гаврилов Андрей Юрьевич
Язык : Russian
Default : Нет
Forced : Нет

Аудио #3
Идентификатор : 4
Формат : AC-3
Формат/Информация : Audio Coding 3
Расширение режима : CM (complete main)
Параметр Endianness формата : Big
Идентификатор кодека : A_AC3
Продолжительность : 1 ч. 32 м.
Вид битрейта : Постоянный
Битрейт : 384 Кбит/сек
Каналы : 2 канала
Расположение каналов : Front: L R
Частота : 48,0 КГц
Частота кадров : 31,250 кадров/сек (1536 spf)
Метод сжатия : С потерями
Размер потока : 255 Мбайт (3%)
Язык : English
Default : Нет
Forced : Нет

Текст #1
Идентификатор : 5
Формат : UTF-8
Идентификатор кодека : S_TEXT/UTF8
Идентификатор кодека/Информация : UTF-8 Plain Text
Язык : Russian
Default : Нет
Forced : Нет

Текст #2
Идентификатор : 6
Формат : UTF-8
Идентификатор кодека : S_TEXT/UTF8
Идентификатор кодека/Информация : UTF-8 Plain Text
Язык : English
Default : Нет
Forced : Нет



Скачать Deti_kukuruzy_2_Poslednjaja_zhertva_Children_of.torrent

просмотры: 2

Post Comment