Боевик Зарубежные фильмы

Большой переполох в маленьком Китае / Big Trouble in Little China (1986) BDRip 720p | D, P, A

Большой переполох в маленьком Китае

Big Trouble in Little China

«A Mystical, Action, Adventure, Comedy, Kung Fu, Monster, Ghost Story!»



Страна: США
Жанр: Ужасы, фэнтези, боевик, комедия, приключения
Год выпуска: 1986
Продолжительность: 01:39:48
Перевод: Профессиональный (полное дублирование), 3 х Профессиональный (многоголосый, закадровый), 2 х Авторский
Субтитры: русские, английские.


Режиссер: Джон Карпентер / John Carpenter


В ролях: Курт Рассел, Ким Кэтролл, Деннис Дун, Джеймс Хонг, Виктор Вонг, Кейт Бёртон, Дональд Ли, Картер Вон, Питер Квон, Джеймс Пак


Описание: Водителю грузовика приходится углубиться в недра китайского квартала Сан-Франциско после того, как некий могущественный китаец похитил девушку его друга только потому, что у нее зеленые глаза.


Семпл


Качество: BDRip
Контейнер: MKV

Видео: AVC, 1280×544 (2.35:1), 8511 kbps, 23,976 fps, 0,496 bpp
Аудио №1: русский / AC3 / 5.1 / 48 kHz / 448 kbps / Дубляж
Аудио №2: русский / AC3 / 5.1 / 48 kHz / 448 kbps / MVO ( Киномания )
Аудио №3: русский / AC3 / 5.1 / 48 kHz / 448 kbps / MVO ( НТВ )
Аудио №4: русский / AC3 / 5.1 / 48 kHz / 448 kbps / MVO ( ОРТ )
Аудио №5: русский / AC3 / 5.1 / 48 kHz / 448 kbps / AVO ( А.Михалёв )
Аудио №6: русский / AC3 / 2.0 / 48 kHz / 192 Kbps / AVO ( В.Горчаков )
Аудио №7: английский / AC3 / 5.1 / 48 kHz / 640 kbps
Навигация по главам: есть


Media Info

*****************************************************************
x264 [info]: frame I:1144 Avg QP:15.38 size:139164
x264 [info]: frame P:30077 Avg QP:17.36 size: 73678
x264 [info]: frame B:112347 Avg QP:19.33 size: 35535
*****************************************************************

Формат : Matroska
Версия формата : Version 2
Размер файла : 8,03 Гбайт
Продолжительность : 1 ч. 39 м.
Общий поток : 11,5 Мбит/сек
Название фильма : = Большой переполох в маленьком Китае / Big Trouble in Little China (1986) BDRip 720p by SC Kosmos =
Дата кодирования : UTC 2016-08-09 13:23:51
Программа кодирования : mkvmerge v5.8.0 ('No Sleep / Pillow') built on Sep 2 2012 15:37:04
Библиотека кодирования : libebml v1.2.3 + libmatroska v1.3.0
Attachment : Yes

Видео
Идентификатор : 1
Формат : AVC
Формат/Информация : Advanced Video Codec
Профиль формата : [email protected]
Параметр CABAC формата : Да
Параметр ReFrames формата : 10 кадров
Идентификатор кодека : V_MPEG4/ISO/AVC
Продолжительность : 1 ч. 39 м.
Битрейт : 8511 Кбит/сек
Ширина : 1280 пикселей
Высота : 544 пикселя
Соотношение сторон : 2,35:1
Режим частоты кадров : Постоянный
Частота кадров : 23,976 кадра/сек
Цветовое пространство : YUV
Субдискретизация насыщенности : 4:2:0
Битовая глубина : 8 бит
Тип развёртки : Прогрессивная
Бит/(Пиксели*Кадры) : 0.510
Размер потока : 5,77 Гбайт (72%)
Заголовок : Большой переполох в маленьком Китае / Big Trouble in Little China (1986) BDRip 720p by SC Kosmos
Библиотека кодирования : x264 core 146 r2538 121396c
Настройки программы : cabac=1 / ref=10 / deblock=1:-2:-2 / analyse=0x3:0x113 / me=esa / subme=11 / psy=1 / psy_rd=1.00:0.00 / mixed_ref=1 / me_range=32 / chroma_me=1 / trellis=2 / 8x8dct=1 / cqm=0 / deadzone=21,11 / fast_pskip=0 / chroma_qp_offset=-2 / threads=12 / lookahead_threads=3 / sliced_threads=0 / nr=0 / decimate=0 / interlaced=0 / bluray_compat=0 / constrained_intra=0 / bframes=12 / b_pyramid=2 / b_adapt=2 / b_bias=0 / direct=3 / weightb=1 / open_gop=0 / weightp=2 / keyint=240 / keyint_min=23 / scenecut=40 / intra_refresh=0 / rc_lookahead=50 / rc=2pass / mbtree=0 / bitrate=8511 / ratetol=1.0 / qcomp=0.60 / qpmin=0 / qpmax=69 / qpstep=4 / cplxblur=20.0 / qblur=0.5 / vbv_maxrate=62500 / vbv_bufsize=78125 / nal_hrd=none / filler=0 / ip_ratio=1.40 / pb_ratio=1.30 / aq=1:1.00
Язык : English
Default : Да
Forced : Нет

Аудио #1
Идентификатор : 2
Формат : AC-3
Формат/Информация : Audio Coding 3
Расширение режима : CM (complete main)
Параметр Endianness формата : Big
Идентификатор кодека : A_AC3
Продолжительность : 1 ч. 39 м.
Вид битрейта : Постоянный
Битрейт : 448 Кбит/сек
Каналы : 6 каналов
Расположение каналов : Front: L C R, Side: L R, LFE
Частота : 48,0 КГц
Битовая глубина : 16 бит
Метод сжатия : С потерями
Размер потока : 320 Мбайт (4%)
Заголовок : Дубляж
Язык : Russian
Default : Да
Forced : Нет

Аудио #2
Идентификатор : 3
Формат : AC-3
Формат/Информация : Audio Coding 3
Расширение режима : CM (complete main)
Параметр Endianness формата : Big
Идентификатор кодека : A_AC3
Продолжительность : 1 ч. 39 м.
Вид битрейта : Постоянный
Битрейт : 384 Кбит/сек
Каналы : 6 каналов
Расположение каналов : Front: L C R, Side: L R, LFE
Частота : 48,0 КГц
Битовая глубина : 16 бит
Метод сжатия : С потерями
Размер потока : 274 Мбайт (3%)
Заголовок : MVO ( Киномания )
Язык : Russian
Default : Нет
Forced : Нет

Аудио #3
Идентификатор : 4
Формат : AC-3
Формат/Информация : Audio Coding 3
Расширение режима : CM (complete main)
Параметр Endianness формата : Big
Идентификатор кодека : A_AC3
Продолжительность : 1 ч. 39 м.
Вид битрейта : Постоянный
Битрейт : 448 Кбит/сек
Каналы : 6 каналов
Расположение каналов : Front: L C R, Side: L R, LFE
Частота : 48,0 КГц
Битовая глубина : 16 бит
Метод сжатия : С потерями
Размер потока : 320 Мбайт (4%)
Заголовок : MVO ( HTB )
Язык : Russian
Default : Нет
Forced : Нет

Аудио #4
Идентификатор : 5
Формат : AC-3
Формат/Информация : Audio Coding 3
Расширение режима : CM (complete main)
Параметр Endianness формата : Big
Идентификатор кодека : A_AC3
Продолжительность : 1 ч. 39 м.
Вид битрейта : Постоянный
Битрейт : 448 Кбит/сек
Каналы : 6 каналов
Расположение каналов : Front: L C R, Side: L R, LFE
Частота : 48,0 КГц
Битовая глубина : 16 бит
Метод сжатия : С потерями
Размер потока : 320 Мбайт (4%)
Заголовок : MVO ( OPT )
Язык : Russian
Default : Нет
Forced : Нет

Аудио #5
Идентификатор : 6
Формат : AC-3
Формат/Информация : Audio Coding 3
Расширение режима : CM (complete main)
Параметр Endianness формата : Big
Идентификатор кодека : A_AC3
Продолжительность : 1 ч. 39 м.
Вид битрейта : Постоянный
Битрейт : 448 Кбит/сек
Каналы : 6 каналов
Расположение каналов : Front: L C R, Side: L R, LFE
Частота : 48,0 КГц
Битовая глубина : 16 бит
Метод сжатия : С потерями
Размер потока : 320 Мбайт (4%)
Заголовок : AVO ( А.Михалёв )
Язык : Russian
Default : Нет
Forced : Нет

Аудио #6
Идентификатор : 7
Формат : AC-3
Формат/Информация : Audio Coding 3
Расширение режима : CM (complete main)
Параметр Endianness формата : Big
Идентификатор кодека : A_AC3
Продолжительность : 1 ч. 39 м.
Вид битрейта : Постоянный
Битрейт : 192 Кбит/сек
Каналы : 2 канала
Расположение каналов : Front: L R
Частота : 48,0 КГц
Битовая глубина : 16 бит
Метод сжатия : С потерями
Размер потока : 137 Мбайт (2%)
Заголовок : AVO ( В.Горчаков )
Язык : Russian
Default : Нет
Forced : Нет

Аудио #7
Идентификатор : 8
Формат : AC-3
Формат/Информация : Audio Coding 3
Расширение режима : CM (complete main)
Параметр Endianness формата : Big
Идентификатор кодека : A_AC3
Продолжительность : 1 ч. 39 м.
Вид битрейта : Постоянный
Битрейт : 640 Кбит/сек
Каналы : 6 каналов
Расположение каналов : Front: L C R, Side: L R, LFE
Частота : 48,0 КГц
Битовая глубина : 16 бит
Метод сжатия : С потерями
Размер потока : 457 Мбайт (6%)
Язык : English
Default : Нет
Forced : Нет

Текст #1
Идентификатор : 9
Формат : UTF-8
Идентификатор кодека : S_TEXT/UTF8
Идентификатор кодека/Информация : UTF-8 Plain Text
Язык : Russian
Default : Нет
Forced : Нет

Текст #2
Идентификатор : 10
Формат : UTF-8
Идентификатор кодека : S_TEXT/UTF8
Идентификатор кодека/Информация : UTF-8 Plain Text
Язык : English
Default : Нет
Forced : Нет

Меню
00:00:00.000 : en:00:00:00.000
00:02:31.902 : en:00:02:31.902
00:06:16.751 : en:00:06:16.751
00:08:33.596 : en:00:08:33.596
00:09:54.969 : en:00:09:54.969
00:12:43.054 : en:00:12:43.054
00:13:57.712 : en:00:13:57.712
00:15:15.581 : en:00:15:15.581
00:17:54.824 : en:00:17:54.824
00:20:17.383 : en:00:20:17.383
00:24:28.842 : en:00:24:28.842
00:28:07.811 : en:00:28:07.811
00:30:47.137 : en:00:30:47.137
00:32:43.879 : en:00:32:43.879
00:34:47.335 : en:00:34:47.335
00:36:02.243 : en:00:36:02.243
00:36:45.578 : en:00:36:45.578
00:37:40.592 : en:00:37:40.592
00:38:29.933 : en:00:38:29.933
00:40:11.701 : en:00:40:11.701
00:44:18.030 : en:00:44:18.030
00:46:10.017 : en:00:46:10.017
00:49:34.597 : en:00:49:34.597
00:51:03.560 : en:00:51:03.560
00:56:37.728 : en:00:56:37.728
00:59:45.540 : en:00:59:45.540
01:01:43.116 : en:01:01:43.116
01:02:56.564 : en:01:02:56.564
01:04:29.032 : en:01:04:29.032
01:06:05.587 : en:01:06:05.587
01:09:35.797 : en:01:09:35.797
01:10:59.338 : en:01:10:59.338
01:12:54.245 : en:01:12:54.245
01:15:48.627 : en:01:15:48.627
01:16:19.992 : en:01:16:19.992
01:18:00.718 : en:01:18:00.718
01:25:52.022 : en:01:25:52.022
01:27:13.812 : en:01:27:13.812
01:28:04.529 : en:01:28:04.529
01:29:16.351 : en:01:29:16.351
01:31:14.803 : en:01:31:14.803
01:32:58.823 : en:01:32:58.823
01:35:25.720 : en:01:35:25.720
01:36:09.472 : en:01:36:09.472

Скриншоты



Скачать Perepoloh.V.Kitae.BDRip.720p.mkv.torrent

просмотры: 2

Post Comment